最近看过此主题的会员

查看: 174|回复: 0

[华语] 原抓:白安《接下來是什麼》2014/WAV整轨/BD

[复制链接]

42

主题

177

帖子

1万

积分

流行教主

Rank: 6Rank: 6

积分
19103
发表于 2019-10-20 02:49:25 | 显示全部楼层 |阅读模式

注册会员,获得无损资源下载地址,享受高品质音乐。

您需要 登录 才可以下载或查看,没有帐号?注册

x
又名: What's next?
表演者: 白安   
流派: 流行
专辑类型: 专辑
介质: CD
发行时间: 2014-09-05
出版者: 相信音樂
唱片数: 1
条形码: 0888750133526

COVER.jpg
捕获.JPG


简介  · · · · · ·
  All in Ann 2nd全白詞曲創作專輯第二章
  白安詞 · 白安曲 · 白安自己
  What if you ever thought of what next?
  若你真的有想過接下來是什麼?
  接下來,你只想聽見自己內心也有一個白安。
  她不屬於任何人的期待∕她的音樂是現實中的意外
  What’s Next? 接下來是什麼
  白安:「如果我本來就不是你們所想像的那樣。」
  距離首張個人專輯「麥田捕手」已經有兩年的時間,再推出第二張專輯「What’s Next?接下來是什麼」;白安的身份與生活有了極大的轉變,從原本單純的創作者成為專職歌手;看待世界的角度也變得更加成熟,但她仍然堅持以自己習慣的節奏與方式面對這一切。
  當「是什麼讓我遇見這樣的你」在影音網站創下高達1900多萬的點擊率,突如而來的關注與工作量,白安坦言完全出乎意料、一瞬間有些不能適應生活的巨大改變;但在思考過後,她更加堅定了「不論如何,就用自己的步調去面對」的想法。之前的成績並沒有成為她限制自己的框架,相反的、在「What’s Next?接下來是什麼」的創作上,她試著改變原有音樂製作的方法、甚至是打破自己原本的習慣;「畢竟,如果不試著去放棄舊有事物、那要怎麼去擁抱新的感受?如果連想像力上面的冒險都不敢嚐試,那就不再是我自己了。」清秀細瘦的外在之下,包覆著聲音溫和、但個性頑強的真實白安;這樣的她也許「不是所有人以為、想像中的白安」,但這樣的白安令人驚喜、也更令人期待白安的 接下來,是什麼?
  睽違兩年再度推出全新創作專輯「What’s Next?」,主打歌「接下來是什麼」輕快颯爽的節奏;同樣獨特的嗓音與唱腔,卻更多了清澈坦白的自信。
  新專輯「What’s Next?」對於一手包辦全部的詞曲創作,「像是對生活的一些感想、然後我把它們instagram下來,用寫歌的方式。」她笑了一下,非常白安式的形容法。在首張個人專輯引起歌迷的高度共鳴之後,接踵而來的工作邀約讓白安有機會造訪不同地方、也結交了許多新朋友;而這些在日常生活中的細微或巨大的改變,雖然一開始讓她有些不能適應,但之後也都成為心思敏銳的她音樂創作的來源。
  在時間與時間之中被推擠,反而讓白安在新專輯的製作中帶來意外的驚喜;新專輯由「大哥」李宗盛親自操刀擔任製作人,在製作的同時、白安也隨著李宗盛一起進行巡迴演唱會的工作;所以許多歌曲的和聲與管樂,直接在各個不同的下榻飯店中完成錄音。「美麗的意外,對嗎?拆掉舊有的形式和框架,無限的可能性就走進來了。」
  最硬的粉紅色 最inside的白安
  白安:「這不是軟軟的粉紅色,這是一種硬度很高的粉紅色。」
  從出道即備受注目的創作型歌手白安,睽違兩年後在日前推出最新個人專輯「What’s Next?」時,搶眼的粉紅色髮型讓人眼睛一亮;首波主打歌「接下來是什麼」坦率的風格、獨特唱腔與輕快旋律,雖仍保有首張專輯的氛圍,但在音樂性上的嚐試更為大膽;再加上令人驚艷的新造型,似乎有意一改過去歌迷對她柔弱乖乖女的既定印象。
  「這不是軟軟的粉紅色,這是一種硬度很高的粉紅色。」白安笑著說,坦言公司提出建議時,的確也稍微考慮了一下;「大概30秒」,首次看見鏡中一頭粉紅色頭髮的自己時、白安只覺得新鮮而有趣;對於陌生事物的接受度之高,其實超乎旁人對她的認定。「粉紅色不一定都是大家以為的那種粉紅色,就像我可能也不是大家所想像的那樣。」
  白安希望自己永遠有足夠的勇氣去面對這些改變,不勉強自己、但也不會因為害怕而猶豫不決;「What’s Next?」是她對自己提出的疑問,同樣的也是對她擁有高度期待歌迷們、最誠實的回應。

曲目  · · · · · ·
1. 接下來是什麼 WHAT’S NEXT
2. 對與錯 RIGHT AND WRONG
3. 半調子人生 ½ LIFE
4. 我也想成為她 WISH I WERE HER
5. 若你真的有想過 IF YOU EVER THOUGHT
6. 尋找精靈 SPIRIT
7. 就當作明天還很遙遠 FORGETTING TOMORROW
8. 換房子 CHANGING HOUSES
9. 安慰 CONSOLATION
10. Don’t Go (若你真的有想過acoustic版)

游客,如果您要查看本帖隐藏内容请回复

  1. Exact Audio Copy V1.3 from 2. September 2016

  2. EAC 抓取日志文件从23. 七月 2019, 22:46

  3. 白安 / 接下來是什麼

  4. 使用驱动器  :PLEXTOR CD-R   PREMIUM   Adapter: 1  ID: 0

  5. 读取模式      : 可靠Secure
  6. 使用精确流     : 是
  7. 清空音频缓存    : 是
  8. 使用 C2 指示器 : 否

  9. 读取偏移校正:               : 30
  10. 读取 Lead-In 和 Lead-Out : 否
  11. 用静音填充抓取中丢失偏移的采样       : 是
  12. 去除首尾静音块               : 否
  13. 在CRC 计算中使用了空样本       : 是
  14. 已用接口                  : Win NT 及 2000 本地 Win32 接口

  15. 所用输出模式: : 内部 WAV 函数
  16. 样本格式    : 44.100 Hz; 16 Bit; 立体声


  17. 已抓取 CD 的 TOC

  18.      音轨 |    起始    |    长度    |  起始扇区  |  结束扇区  
  19.     --------------------------------------------
  20.       1 |  0:00.00 |  3:14.42 |      0 |  14591
  21.       2 |  3:14.42 |  4:17.25 |  14592 |  33891
  22.       3 |  7:31.67 |  3:37.60 |  33892 |  50226
  23.       4 | 11:09.52 |  3:13.38 |  50227 |  64739
  24.       5 | 14:23.15 |  4:45.22 |  64740 |  86136
  25.       6 | 19:08.37 |  4:26.43 |  86137 | 106129
  26.       7 | 23:35.05 |  3:56.65 | 106130 | 123894
  27.       8 | 27:31.70 |  3:09.72 | 123895 | 138141
  28.       9 | 30:41.67 |  3:40.00 | 138142 | 154641
  29.      10 | 34:21.67 |  3:51.55 | 154642 | 172021


  30. 范围状态及错误

  31. 已选择范围

  32.      文件名 I:\EAC\白安 - 2014《接下來是什麼》T版[WAV整轨]\白安 - 接下來是什麼.wav

  33.      峰值电平 99.8 %
  34.      抓取速度 3.7 X
  35.      范围质量 100.0 %
  36.      复制 CRC 8D33622B
  37.      复制成功

  38. 没有错误发生


  39. AccurateRip 摘要

  40. 音轨  1  精确地校准抓取  6)  [B7D3E1CD]  (AR v2)
  41. 音轨  2  精确地校准抓取  5)  [520171B6]  (AR v2)
  42. 音轨  3  精确地校准抓取  5)  [7B4B1A46]  (AR v2)
  43. 音轨  4  精确地校准抓取  5)  [4C3FDAE6]  (AR v2)
  44. 音轨  5  精确地校准抓取  6)  [C7A0C2A4]  (AR v2)
  45. 音轨  6  精确地校准抓取  5)  [78E82CAD]  (AR v2)
  46. 音轨  7  精确地校准抓取  5)  [C1B9FB6E]  (AR v2)
  47. 音轨  8  精确地校准抓取  5)  [0388F98B]  (AR v2)
  48. 音轨  9  精确地校准抓取  6)  [8647407F]  (AR v2)
  49. 音轨 10  精确地校准抓取  6)  [48B0E6B6]  (AR v2)

  50. 所有音轨精确校准抓取

  51. 状态报告结尾

  52. ---- CUETools DB Plugin V2.1.6

  53. [CTDB TOCID: 0Wk1PAdKy94gylFZ8.9t_rQ2Ei0-] found
  54. Submit result: 0Wk1PAdKy94gylFZ8.9t_rQ2Ei0- has been confirmed
  55. Track | CTDB Status
  56.   1   | (52/52) Accurately ripped
  57.   2   | (52/52) Accurately ripped
  58.   3   | (52/52) Accurately ripped
  59.   4   | (52/52) Accurately ripped
  60.   5   | (52/52) Accurately ripped
  61.   6   | (52/52) Accurately ripped
  62.   7   | (52/52) Accurately ripped
  63.   8   | (52/52) Accurately ripped
  64.   9   | (52/52) Accurately ripped
  65. 10   | (52/52) Accurately ripped


  66. ==== 记录校验日志 48CA6B7607DFB36C70C692801493EC409E30AC2F95188F2D7230A89B96FC44C0 ====
复制代码



评分

参与人数 1CD +240 收起 理由
最终之战 + 240

查看全部评分





原抓:白安《麥田捕手》2012/WAV整轨/BD
原抓:白安《1990s 》2018T版/WAV整轨/BD
您需要登录后才可以回帖 登录 | 注册

本版积分规则

快速回复 返回顶部 返回列表