最近看过此主题的会员

查看: 195|回复: 0

[华语] 原抓:白安《麥田捕手》2012/WAV整轨/BD

[复制链接]

42

主题

177

帖子

1万

积分

流行教主

Rank: 6Rank: 6

积分
19103
发表于 2019-10-20 02:43:49 | 显示全部楼层 |阅读模式

注册会员,获得无损资源下载地址,享受高品质音乐。

您需要 登录 才可以下载或查看,没有帐号?注册

x
表演者: 白安 Ann Bai   
流派: 流行
专辑类型: 专辑
介质: CD
发行时间: 2012-12-21
出版者: 相信音乐
唱片数: 1
条形码: 0887654475626

COVER.jpg
捕获.JPG
简介  · · · · · ·
  13歲初戀創作 17歲驚豔網路 四年閉門創作400首青春小宇宙
  21歲的白安蛻變才女 以台北女孩的創作靈性掀起華語樂壇寧靜革命!
  首波單曲網友狂讚「是什麼讓我遇見這樣的你?」
  白安默默投下年底唱片大戰震撼彈
  白安人生第一張全創作「麥田捕手」12/21正式發行
  「相信音乐」初声之犊不怕虎,12月将推出全新创作女声-白安。以天生一副充满灵性嗓音的台北女孩白安终结2012的惶惶不安。在细小瘦弱的外表下,白安的歌声有一种抚平人心的巨大能量!过滤精选自白安17岁开始到21岁、以四年青春所创作的四百首音乐日记,12/21正式发行的第一张个人创作专辑《麦田捕手》,10首处女作都由白安一手包办词曲创作!第一张个人专辑就大胆实验华语音乐罕见的「电气民谣摇滚」曲风,刚满21岁的白安,如其名,像一张「白」纸,写上宇宙里小小的自己,却字字重击人心; 「安」静而好奇,观察这个正要踏入的成人大世界,连一声换气嘆息都充满爆发力!她认为,对於难过,她不想逞强逼自己毫不在意;对於欢快,她不习惯做作地装出习以为常;面对这些情绪,白安觉得:「用刚好的字眼,才能还原当下的心情。」就是这样只求刚刚好像自己的坦白,让白安安於在自己的小房间蓄积了四年的能量,终於要在今年12月在华语乐坛掀开一场宁静革命!
  小学开始学音乐,擅长吉他与Keyboard,13岁开始对创作产生了兴趣,16岁时尝试将自己创作的歌曲放上streetvoice网站,脱俗的白安风格果然一开始就引起了广大网友的共鸣,让白安的音乐从streetvoice.com的角落开始蔓延扩散。17岁那年,白安获选在「简单生活节」的未来舞台中演出,当时的一曲「Bird」让台下观眾顿时如遭电击般全场安静,更像一块声音的磁铁让原本只是路过的人群驻足,也让白安正式签下一纸唱片合约,开始了与自己的首张专辑长达四年的拔河, 只有在音乐里,白安才确认了自己的模样,知道「刚刚好」、「等身大」的自己,才是最适合也最自然的状态。
  从17岁到21岁,「刚好懂事,还没準备好世故」的白安,终於从近400首Demo中淬炼出首张创作专辑「麦田捕手」。专辑同名单曲「麦田捕手」Demo,曾一度在Street Voice创下16万的点阅人次,也让越来越多人关注期待她的作品,白安说:「对别人来说、或者对自己来说,我常常觉得自己很微不足道、很什么都不是;只是一直闷著头写写唱唱,但是那些透过音乐喜欢我的人,却给了我力量;是『你』让我可以和自我怀疑、犹豫正面对决,不会觉得孤单。虽然有时也会搞砸、或是做得不够好,但是会不断努力、想证明自己值得拥有那些喜欢。」那每一个「你」,因此催化了白安日前公开的第一首正式单曲「是什么让我遇见这样的你」。这首只闻其声不见其人的单曲才在Youtube首播,一夕之间就突破三万人疯狂转载,网友更纷纷揣测有这样慑人丹田的女声恐怕长得吨位不轻,让体重四十出头的白安啼笑皆非!白安的灵性嗓音不只让五月天阿信盛讚「夜深人静,感动震耳欲聋!」更让师兄严爵在脸书自爆「白安实在太迷人!」「重复听了23次还睡不著!」小小的白安Small girl,Big voice正要大大震撼这个过於不安的世界!

曲目  · · · · · ·
01. 麥田捕手
02. 兜風
03. 倒著走
04. 不聽
05. 默劇
06. Bird
07. 我只想在乎我在乎的
08. 放空
09. 難愛
10. 是什麼讓我遇見這樣的你

游客,如果您要查看本帖隐藏内容请回复

  1. <strong><font face="微软雅黑">Exact Audio Copy V1.3 from 2. September 2016

  2. EAC 抓取日志文件从23. 七月 2019, 23:37

  3. 白安 / 麥田捕手

  4. 使用驱动器  :PLEXTOR CD-R   PREMIUM   Adapter: 1  ID: 0

  5. 读取模式      : 可靠Secure
  6. 使用精确流     : 是
  7. 清空音频缓存    : 是
  8. 使用 C2 指示器 : 否

  9. 读取偏移校正:               : 30
  10. 读取 Lead-In 和 Lead-Out : 否
  11. 用静音填充抓取中丢失偏移的采样       : 是
  12. 去除首尾静音块               : 否
  13. 在CRC 计算中使用了空样本       : 是
  14. 已用接口                  : Win NT 及 2000 本地 Win32 接口

  15. 所用输出模式: : 内部 WAV 函数
  16. 样本格式    : 44.100 Hz; 16 Bit; 立体声


  17. 已抓取 CD 的 TOC

  18.      音轨 |    起始    |    长度    |  起始扇区  |  结束扇区  
  19.     --------------------------------------------
  20.       1 |  0:00.00 |  4:22.62 |      0 |  19711
  21.       2 |  4:22.62 |  4:48.25 |  19712 |  41336
  22.       3 |  9:11.12 |  4:41.45 |  41337 |  62456
  23.       4 | 13:52.57 |  4:51.45 |  62457 |  84326
  24.       5 | 18:44.27 |  3:47.15 |  84327 | 101366
  25.       6 | 22:31.42 |  3:54.63 | 101367 | 118979
  26.       7 | 26:26.30 |  4:25.70 | 118980 | 138924
  27.       8 | 30:52.25 |  4:00.37 | 138925 | 156961
  28.       9 | 34:52.62 |  2:58.03 | 156962 | 170314
  29.      10 | 37:50.65 |  4:25.07 | 170315 | 190196


  30. 范围状态及错误

  31. 已选择范围

  32.      文件名 I:\EAC\白安 - 2012《麥田捕手》T版[WAV整轨]\白安 - 麥田捕手.wav

  33.      峰值电平 99.8 %
  34.      抓取速度 3.7 X
  35.      范围质量 100.0 %
  36.      复制 CRC 7E00805E
  37.      复制成功

  38. 没有错误发生


  39. AccurateRip 摘要

  40. 音轨  1  精确地校准抓取  26)  [845B83FF]  (AR v2)
  41. 音轨  2  精确地校准抓取  25)  [6ECA0C74]  (AR v2)
  42. 音轨  3  精确地校准抓取  25)  [BC748CAB]  (AR v2)
  43. 音轨  4  精确地校准抓取  25)  [6A2C35C6]  (AR v2)
  44. 音轨  5  精确地校准抓取  26)  [32FAFC4C]  (AR v2)
  45. 音轨  6  精确地校准抓取  26)  [4CFC4258]  (AR v2)
  46. 音轨  7  精确地校准抓取  25)  [E9179EE7]  (AR v2)
  47. 音轨  8  精确地校准抓取  26)  [D1DDDE62]  (AR v2)
  48. 音轨  9  精确地校准抓取  25)  [685F0E63]  (AR v2)
  49. 音轨 10  精确地校准抓取  26)  [29D318F3]  (AR v2)

  50. 所有音轨精确校准抓取

  51. 状态报告结尾

  52. ---- CUETools DB Plugin V2.1.6

  53. [CTDB TOCID: nQ0juQ2cxbujoUf6ckYd6JaKPno-] found
  54. Submit result: nQ0juQ2cxbujoUf6ckYd6JaKPno- has been confirmed
  55. Track | CTDB Status
  56.   1   | (94/95) Accurately ripped
  57.   2   | (94/95) Accurately ripped
  58.   3   | (94/95) Accurately ripped
  59.   4   | (94/95) Accurately ripped
  60.   5   | (94/95) Accurately ripped
  61.   6   | (94/95) Accurately ripped
  62.   7   | (94/95) Accurately ripped
  63.   8   | (94/95) Accurately ripped
  64.   9   | (94/95) Accurately ripped
  65. 10   | (93/95) Accurately ripped


  66. ==== 记录校验日志 51B5C9622F9605F5EAEC93F8BA094FA12A18EDC625BD825117FB474A49F2522E ====
  67. </font></strong>
复制代码


评分

参与人数 1CD +240 收起 理由
最终之战 + 240 感谢分享资源,CD包因你而精彩.

查看全部评分





飞鱼原抓:刘若英《年华》2001 整轨WAV+LOG/BD
原抓:白安《接下來是什麼》2014/WAV整轨/BD
您需要登录后才可以回帖 登录 | 注册

本版积分规则

快速回复 返回顶部 返回列表