最近看过此主题的会员

查看: 174|回复: 2

[华语] 原抓:戏班《就是这个调调 》2012/WAV整轨/BD

[复制链接]

42

主题

177

帖子

1万

积分

流行教主

Rank: 6Rank: 6

积分
19103
发表于 2019-10-22 19:38:28 | 显示全部楼层 |阅读模式

注册会员,获得无损资源下载地址,享受高品质音乐。

您需要 登录 才可以下载或查看,没有帐号?注册

x
表演者: 戏班
流派: 世界音乐
专辑类型: 专辑
介质: CD
发行时间: 2012-03-02
出版者: 二生三后
唱片数: 1

COVER.jpg
捕获.JPG


简介  · · · · · ·
  《戏班》
  什么是中国的民间音乐?不同于如今久居大雅之堂的民族音乐,中国民间音乐自产生以来就一直是人味儿十足的,新鲜的、野性的、漂泊的,风趣的,直接的,从来不曾富贵却也从未失其尊严和自由。
  中国各个不同的戏曲种类源于各个不同的时代、地方,却无一例外地生于民间,养于民间,经历过欢喜与厌倦的起伏交错,热闹与冷清的世态炎凉,沉淀下来的除了那份倔强与骄傲之外,那所谓弦外之音的传奇身世之外,更有那真正的骨子里的千种韵味、万种风情。
  不同的时代,风景在变,速度在变,声响在变,精神在变,感觉在变,当所有的变化都成立,塑造了一个崭新的身体之时,有一种顽固的不变的远古流传的记忆却借着这个身体还了魂,借着这个身体来了劲儿。中国的民间音乐从来都无法拘泥于固有的传统形式,这是首先在生存法则下的艺术创新,是一种被逼于绝境的凤凰涅槃。这就是《戏班》这个民间乐团产生的缘由,也是这个乐团全部的生存之道。
  《戏班》的音乐以汉民族的词曲结构为根,建立在秦腔,京韵大鼓,绛州鼓乐,黄河号子的传统艺术基础上,融合了西藏长调,澳洲土著音乐,印度音乐,以及现代的minimal,Dub等电子音乐的元素,完全自成一派的新音乐类型。其音乐既具备中国传统音乐骨子里的人文精神,又不乏西方流行音乐特有的节奏律动,值得一提的是,《戏班》的音乐完全抓住的是潜在的节奏律动,并非生搬硬套的拼接节奏,所以,《戏班》的音乐将两者结合的不露丝毫痕迹,听上去浑然天成。
  乐团人员组成:中国、法国、波兰。
  乐团使用乐器:人声、绛州鼓、三弦、锣、铃、口弦、手鼓、乌嘟、箫、笛、吉他、水桶、木块、澳洲土著乐器didgeridoo、印度风琴等等。。。。。。
  乐团音乐风格:原创。混合:山东琴书、京韵大鼓、秦腔琴韵、云南长调
  乐团成员名单:人声/三弦/吉他/竹马
  didgeridoo/口弦/箫/笛/雷诺
  手鼓/印度风琴/亚瑟
  锣/木鱼/低音打击乐/钟逊
  人声/和声/拉姆
  打击乐/袁朝桢
曲目  · · · · · ·
01 四季歌
02 数人玩
03 酒歌
04 把你埋在土里
05 醉生梦死的鬼
06 拿出来
07 追风筝
08 记脸忘名
09 很简单

游客,如果您要查看本帖隐藏内容请回复

  1. Exact Audio Copy V1.3 from 2. September 2016

  2. EAC 抓取日志文件从6. 五月 2019, 21:01

  3. 戏班 / 就是这个调调

  4. 使用驱动器  :PIONEER BD-RW   BDR-XD04   Adapter: 1  ID: 0

  5. 读取模式      : 可靠Secure
  6. 使用精确流     : 是
  7. 清空音频缓存    : 是
  8. 使用 C2 指示器 : 否

  9. 读取偏移校正:               : 667
  10. 读取 Lead-In 和 Lead-Out : 否
  11. 用静音填充抓取中丢失偏移的采样       : 是
  12. 去除首尾静音块               : 否
  13. 在CRC 计算中使用了空样本       : 是
  14. 已用接口                  : Win NT 及 2000 本地 Win32 接口

  15. 所用输出模式: : 内部 WAV 函数
  16. 样本格式    : 44.100 Hz; 16 Bit; 立体声


  17. 已抓取 CD 的 TOC

  18.      音轨 |    起始    |    长度    |  起始扇区  |  结束扇区  
  19.     --------------------------------------------
  20.       1 |  0:00.00 |  8:01.74 |      0 |  36148
  21.       2 |  8:01.74 |  3:46.32 |  36149 |  53130
  22.       3 | 11:48.31 |  4:18.70 |  53131 |  72550
  23.       4 | 16:07.26 |  8:55.74 |  72551 | 112749
  24.       5 | 25:03.25 |  5:35.47 | 112750 | 137921
  25.       6 | 30:38.72 |  5:30.34 | 137922 | 162705
  26.       7 | 36:09.31 |  4:54.03 | 162706 | 184758
  27.       8 | 41:03.34 |  4:36.47 | 184759 | 205505
  28.       9 | 45:40.06 |  3:15.71 | 205506 | 220201


  29. 范围状态及错误

  30. 已选择范围

  31.      文件名 G:\EAC\戏班 - 2012《就是这个调调》[WAV整轨]\戏班 - 就是这个调调.wav

  32.      峰值电平 100.0 %
  33.      抓取速度 4.6 X
  34.      范围质量 100.0 %
  35.      复制 CRC 975F28FD
  36.      复制成功

  37. 没有错误发生


  38. AccurateRip 摘要

  39. 音轨  1  在数据库中不存在
  40. 音轨  2  在数据库中不存在
  41. 音轨  3  在数据库中不存在
  42. 音轨  4  在数据库中不存在
  43. 音轨  5  在数据库中不存在
  44. 音轨  6  在数据库中不存在
  45. 音轨  7  在数据库中不存在
  46. 音轨  8  在数据库中不存在
  47. 音轨  9  在数据库中不存在

  48. 没有任何音轨在 AccurateRip 数据库中有记录

  49. 状态报告结尾

  50. ---- CUETools DB Plugin V2.1.6

  51. [CTDB TOCID: IbJLHSdtVpq6RIK0qgFUvFTdDQE-] found
  52. Submit result: IbJLHSdtVpq6RIK0qgFUvFTdDQE- has been confirmed
  53. Track | CTDB Status
  54.   1   | (1/1) Accurately ripped
  55.   2   | (1/1) Accurately ripped
  56.   3   | (1/1) Accurately ripped
  57.   4   | (1/1) Accurately ripped
  58.   5   | (1/1) Accurately ripped
  59.   6   | (1/1) Accurately ripped
  60.   7   | (1/1) Accurately ripped
  61.   8   | (1/1) Accurately ripped
  62.   9   | (1/1) Accurately ripped

复制代码


评分

参与人数 1CD +240 收起 理由
最终之战 + 240 很棒的帖子,支持

查看全部评分





原抓:陈朋《五味杂陈 》2019/WAV整轨/BD
原抓:山人乐队《听山 》2012/WAV整轨/BD

195

主题

1372

帖子

6万

积分

天王巨星

Rank: 7Rank: 7Rank: 7

积分
62758

社区QQ达人灌水勋章

发表于 2019-10-22 20:04:38 | 显示全部楼层
洗版了,整轨不错

99

主题

528

帖子

5万

积分

天王巨星

Rank: 7Rank: 7Rank: 7

积分
56998
QQ
发表于 2019-10-23 01:41:40 | 显示全部楼层
很有味道,别有洞天的一支乐队,虽然不是经常听,偶尔听下感觉很有味。
过期不补档
您需要登录后才可以回帖 登录 | 注册

本版积分规则

快速回复 返回顶部 返回列表