最近看过此主题的会员

查看: 194|回复: 4

[华语] 原抓:山人乐队《听山 》2012/WAV整轨/BD

[复制链接]

42

主题

177

帖子

1万

积分

流行教主

Rank: 6Rank: 6

积分
19103
发表于 2019-10-22 20:44:24 | 显示全部楼层 |阅读模式

注册会员,获得无损资源下载地址,享受高品质音乐。

您需要 登录 才可以下载或查看,没有帐号?注册

x
表演者: 山人乐队    山人乐队  
流派: 世界音乐
专辑类型: 专辑
介质: CD
发行时间: 2013-05-17

COVER.jpg
捕获.JPG
简介  · · · · · ·
  经历世俗磨砺、忘年传唱,最终只剩传说,对于民歌而言没有丝毫值得骄傲。所幸这群山里走出的汉子,近乎痴狂地迷恋自己土地发出的声音,并用现代器乐穿针引线,在保持月琴骄傲的同时将Folk延展至World Music。
  山人第二专,忘记摇滚大咖身份,潜心回云南,生动、原始、低吟浅唱、瘾从心生。


曲目
01 左脚调
02 啦嗦咪
03 老姆登
04 迷走
05 螃蟹
06 鼻涕童
07 朝九晚五
08 过年
09 无声世界
10 山草
11 佤歌
12 彝佤
13 酒歌
14 失传
15 撤退的歌



游客,如果您要查看本帖隐藏内容请回复

  1. Exact Audio Copy V1.3 from 2. September 2016

  2. EAC 抓取日志文件从3. 七月 2019, 21:43

  3. 山人乐队 / 听山

  4. 使用驱动器  :PLEXTOR CD-R   PREMIUM   Adapter: 1  ID: 0

  5. 读取模式      : 可靠Secure
  6. 使用精确流     : 是
  7. 清空音频缓存    : 否
  8. 使用 C2 指示器 : 是

  9. 读取偏移校正:               : 30
  10. 读取 Lead-In 和 Lead-Out : 否
  11. 用静音填充抓取中丢失偏移的采样       : 是
  12. 去除首尾静音块               : 否
  13. 在CRC 计算中使用了空样本       : 是
  14. 已用接口                  : Win NT 及 2000 本地 Win32 接口

  15. 所用输出模式: : 内部 WAV 函数
  16. 样本格式    : 44.100 Hz; 16 Bit; 立体声


  17. 已抓取 CD 的 TOC

  18.      音轨 |    起始    |    长度    |  起始扇区  |  结束扇区  
  19.     --------------------------------------------
  20.       1 |  0:00.00 |  3:53.54 |      0 |  17528
  21.       2 |  3:53.54 |  3:08.25 |  17529 |  31653
  22.       3 |  7:02.04 |  2:18.11 |  31654 |  42014
  23.       4 |  9:20.15 |  1:39.47 |  42015 |  49486
  24.       5 | 10:59.62 |  3:58.30 |  49487 |  67366
  25.       6 | 14:58.17 |  2:30.25 |  67367 |  78641
  26.       7 | 17:28.42 |  4:23.70 |  78642 |  98436
  27.       8 | 21:52.37 |  4:31.54 |  98437 | 118815
  28.       9 | 26:24.16 |  5:11.74 | 118816 | 142214
  29.      10 | 31:36.15 |  2:28.07 | 142215 | 153321
  30.      11 | 34:04.22 |  3:09.71 | 153322 | 167567
  31.      12 | 37:14.18 |  3:47.30 | 167568 | 184622
  32.      13 | 41:01.48 |  2:26.02 | 184623 | 195574
  33.      14 | 43:27.50 |  1:33.64 | 195575 | 202613
  34.      15 | 45:01.39 |  4:41.70 | 202614 | 223758


  35. 范围状态及错误

  36. 已选择范围

  37.      文件名 G:\EAC\山人乐队 - 2013《听山》[WAV整轨]\山人乐队 - 听山.wav

  38.      峰值电平 100.0 %
  39.      抓取速度 20.8 X
  40.      范围质量 100.0 %
  41.      复制 CRC A1F1A43D
  42.      复制成功

  43. 没有错误发生

  44. 状态报告结尾

  45. ---- CUETools DB Plugin V2.1.6

  46. [CTDB TOCID: .rbzvYw5t3S._Ud6qD1XkfxOE7s-] found
  47. Submit result: .rbzvYw5t3S._Ud6qD1XkfxOE7s- has been confirmed
  48. Track | CTDB Status
  49.   1   | (2/2) Accurately ripped
  50.   2   | (2/2) Accurately ripped
  51.   3   | (2/2) Accurately ripped
  52.   4   | (2/2) Accurately ripped
  53.   5   | (2/2) Accurately ripped
  54.   6   | (2/2) Accurately ripped
  55.   7   | (2/2) Accurately ripped
  56.   8   | (2/2) Accurately ripped
  57.   9   | (2/2) Accurately ripped
  58. 10   | (2/2) Accurately ripped
  59. 11   | (2/2) Accurately ripped
  60. 12   | (2/2) Accurately ripped
  61. 13   | (2/2) Accurately ripped
  62. 14   | (2/2) Accurately ripped
  63. 15   | (2/2) Accurately ripped

复制代码



评分

参与人数 1CD +240 收起 理由
最终之战 + 240 感谢分享资源,CD包因你而精彩.

查看全部评分





原抓:戏班《就是这个调调 》2012/WAV整轨/BD
原抓:王建房 《我要活 》2006/WAV整轨/BD

112

主题

1824

帖子

4万

积分

天王巨星

Rank: 7Rank: 7Rank: 7

积分
49091

社区QQ达人

发表于 2019-10-22 20:49:12 | 显示全部楼层
日本版?拿下谢谢楼主

98

主题

523

帖子

5万

积分

天王巨星

Rank: 7Rank: 7Rank: 7

积分
56202
QQ
发表于 2019-10-23 01:39:33 | 显示全部楼层
很喜欢这个好声音,自从看了好声音直觉告诉我他们肯定是第一,真的就拿下了,支持他们的原创精神。

点评

难道不是好歌曲吗?  详情 回复 发表于 2019-10-23 09:50
过期不补档
 成长值: 280

27

主题

352

帖子

5802

积分

VIP1

Rank: 4

积分
5802

社区QQ达人

发表于 2019-10-23 09:50:05 | 显示全部楼层
树哭叶散 发表于 2019-10-23 01:39
很喜欢这个好声音,自从看了好声音直觉告诉我他们肯定是第一,真的就拿下了,支持他们的原创精神。
...

难道不是好歌曲吗?

28

主题

850

帖子

4万

积分

天王巨星

Rank: 7Rank: 7Rank: 7

积分
42523

社区QQ达人VIP勋章

发表于 昨天 13:27 | 显示全部楼层
山人乐队的音乐生发于泥土,清楚的看到他们在表达什么,既有民族风格,又跳脱出民族的框架,放眼于世界。旋律悠扬动听,风格表现成稳,多样。第一次听有了好玩的感觉,听一段时间便会有新的认识,从此便爱上了这个不一样的感觉。

您需要登录后才可以回帖 登录 | 注册

本版积分规则

快速回复 返回顶部 返回列表