最近看过此主题的会员

查看: 182|回复: 0

[华语] 原抓:王建房 《我要活 》2006/WAV整轨/BD

[复制链接]

42

主题

177

帖子

1万

积分

流行教主

Rank: 6Rank: 6

积分
19103
发表于 2019-10-23 21:45:41 | 显示全部楼层 |阅读模式

注册会员,获得无损资源下载地址,享受高品质音乐。

您需要 登录 才可以下载或查看,没有帐号?注册

x
表演者: 王建房   
专辑类型: 专辑
介质: CD
发行时间: 2006-12-12
唱片数: 1
条形码: 9787798940688
ISRC(中国): CNF180656300

COVER.jpg
捕获.JPG

简介  · · · · · ·
  专辑介绍:
  东昇音乐 强势推出
  王建房《我要活》
  ——献给那些在困境中仍然坚强不息的人们
  他是音乐人,是歌手,
  他的歌声不是唱出来的,是“吼”出来的。
  他是陕西人,是一头西北狼,
  有着骄傲的性格,执着的坚持自己的理想——活着 。
  他是男人,有血性的真汉子。
  王建房《我要活》——献给那些在困境中仍然坚强不息的人们
  这是一张,混合着泥土和水泥气息的作品,是一张平民专辑,道地的陕西方言,特别的西北风情,
  演绎着平常人的朴实的生活状态。摇滚只是形式,只是西北汉子的手段。坚强、执著都不用在歌词
  内直接体现,感官的享受才更重要。

曲目  · · · · · ·
01.大老碗
02.夜色
03.天使在人间
04.我怎么了
05.高醉
06.燃烧
07.活着
08.伤心的玫瑰
09.花儿为谁开
10.THIN LIKE PAPER(薄如纸)
11.啥家

游客,如果您要查看本帖隐藏内容请回复


  1. <STRONG><FONT face=微软雅黑>Exact Audio Copy V1.3 from 2. September 2016

  2. EAC 抓取日志文件从13. 七月 2019, 20:53

  3. 王建房 / 我要活

  4. 使用驱动器 :PIONEER BD-RW BDR-XD04 Adapter: 1 ID: 2

  5. 读取模式 : 可靠Secure
  6. 使用精确流 : 是
  7. 清空音频缓存 : 是
  8. 使用 C2 指示器 : 否

  9. 读取偏移校正: : 0
  10. 读取 Lead-In 和 Lead-Out : 否
  11. 用静音填充抓取中丢失偏移的采样 : 是
  12. 去除首尾静音块 : 否
  13. 在CRC 计算中使用了空样本 : 是
  14. 已用接口 : Win NT 及 2000 本地 Win32 接口

  15. 所用输出模式: : 内部 WAV 函数
  16. 样本格式 : 44.100 Hz; 16 Bit; 立体声


  17. 已抓取 CD 的 TOC

  18. 音轨 | 起始 | 长度 | 起始扇区 | 结束扇区
  19. --------------------------------------------
  20. 1 | 0:00.00 | 3:43.74 | 0 | 16798
  21. 2 | 3:43.74 | 4:12.11 | 16799 | 35709
  22. 3 | 7:56.10 | 4:33.64 | 35710 | 56248
  23. 4 | 12:29.74 | 4:31.36 | 56249 | 76609
  24. 5 | 17:01.35 | 4:07.58 | 76610 | 95192
  25. 6 | 21:09.18 | 4:22.51 | 95193 | 114893
  26. 7 | 25:31.69 | 5:12.16 | 114894 | 138309
  27. 8 | 30:44.10 | 5:05.56 | 138310 | 161240
  28. 9 | 35:49.66 | 4:26.43 | 161241 | 181233
  29. 10 | 40:16.34 | 4:01.21 | 181234 | 199329
  30. 11 | 44:17.55 | 4:30.54 | 199330 | 219633


  31. 范围状态及错误

  32. 已选择范围

  33. 文件名 I:\EAC\王建房 - 2006《我要活》[WAV整轨]\王建房 - 我要活.wav

  34. 峰值电平 100.0 %
  35. 抓取速度 4.4 X
  36. 范围质量 99.9 %
  37. 复制 CRC E546535A
  38. 复制成功

  39. 没有错误发生

  40. 状态报告结尾

  41. ---- CUETools DB Plugin V2.1.6

  42. [CTDB TOCID: DnrOkDO1zvdMYdsUua9nexUES90-] found
  43. Submit result: DnrOkDO1zvdMYdsUua9nexUES90- has been confirmed
  44. Track | CTDB Status
  45. 1 | (1/1) Accurately ripped
  46. 2 | (1/1) Accurately ripped
  47. 3 | (1/1) Accurately ripped
  48. 4 | (1/1) Accurately ripped
  49. 5 | (1/1) Accurately ripped
  50. 6 | (1/1) Accurately ripped
  51. 7 | (1/1) Accurately ripped
  52. 8 | (1/1) Accurately ripped
  53. 9 | (1/1) Accurately ripped
  54. 10 | (1/1) Accurately ripped
  55. 11 | (1/1) Accurately ripped


  56. ==== 记录校验日志 9C1412904E7F258E0F42018E2080FB1E6BCE6EF6AF4FB2B7E71157D385A61538 ====
  57. </FONT></STRONG>
复制代码

评分

参与人数 1CD +240 收起 理由
最终之战 + 240

查看全部评分





原抓:山人乐队《听山 》2012/WAV整轨/BD
原抓:王建房 《长安城 》2006/WAV整轨/BD
您需要登录后才可以回帖 登录 | 注册

本版积分规则

快速回复 返回顶部 返回列表