查看: 2834|回复: 84

[华语摇滚] 谢天笑《降噪不插电演唱会》WAV/度盘

[复制链接]

264

主题

732

帖子

3万

积分

天王巨星

Rank: 7Rank: 7Rank: 7

积分
37039

社区QQ达人灌水勋章分享勋章

发表于 2016-3-9 16:09:36 | 显示全部楼层 |阅读模式

注册会员,获得无损资源下载地址,享受高品质音乐。

您需要 登录 才可以下载或查看,没有帐号?注册

x

2013062408080566dac.jpg 20130620102257146.jpg u=1243024640,179402655&fm=21&gp=0.jpg


2013年距“1994中国摇滚乐势力”历史性演出已经过去20个年头,在过去的20年里,中国摇滚乐发生了历史性的变革,摇滚乐不再只是呐喊与反叛的代名词而更趋向于自我意识的觉醒和多元个性的表达。

在当今中国摇滚乐界活跃着一批有强大号召力的乐队及音乐家们,他们通过无数场现场演出得到越来越多的忠实乐迷和社会认可,他们改变着中国现代音乐文化生态,改写了摇滚乐史……他们是近年来中国乐坛最具影响力的音乐力量,而这股力量来源于他们的现场!

“LIVE生活”音乐会联手2013北演55周年演出季集结了木玛、脑浊乐队、爽子与瓷乐队、痛仰乐队、谢天笑、子曰秋野6支当今摇滚乐坛最具代表性的乐队,在标志性剧院—北京保利剧院,采用纯粹不插电的演出形式,上演6场不插电摇滚音乐会,开启中国摇滚乐新篇章。

降噪,绝不是妥协!收起外露的锋芒、直面内心的力量,将摇滚乐最原始的情感用更真实、细腻的方式表达出来,让摇滚乐,灿烂涅槃!

这是这场演唱会的WAV版本,但是缺少CUE,所以不能一首一首听,但是音质还是拔尖的,1411的kps,希望大家喜欢!!!



游客,如果您要查看本帖隐藏内容请回复


评分

参与人数 1CD +150 包子 +2 收起 理由
CDbao + 150 + 2 感谢分享资源,CD包因你而精彩.

查看全部评分




上一篇:美独立摇Cloud Nothings《Attack On Memory》2012/flac/百度
下一篇:群星 -94香港红磡摇滚中国乐势力/WAV/度盘

1

主题

65

帖子

144

积分

新人会员,请认真回复,若恶意回复,直接封号

Rank: 1

积分
144
发表于 2016-3-18 13:10:00 | 显示全部楼层

胡乱整了一个cue

PERFORMER "谢天笑"
TITLE "谢天笑降噪不插电演唱会"
FILE "谢天笑降噪不插电演唱会.wav" WAVE
  TRACK 01 AUDIO
    TITLE "与声音跳舞"
    INDEX 01 00:00:00
  TRACK 02 AUDIO
    TITLE "埋藏着宝藏的地方"
    INDEX 00 05:17:53
    INDEX 01 05:17:53
  TRACK 03 AUDIO
    TITLE "亲我一口咬我一口"
    INDEX 00 11:26:03
    INDEX 01 11:26:03
  TRACK 04 AUDIO
    TITLE "最后一个人"
    INDEX 00 17:28:35
    INDEX 01 17:28:35
  TRACK 05 AUDIO
    TITLE "追逐影子的人"
    INDEX 00 22:57:42
    INDEX 01 22:57:42
  TRACK 06 AUDIO
    TITLE "再次来临"
    INDEX 00 28:22:34
    INDEX 01 28:22:34
  TRACK 07 AUDIO
    TITLE "风是外衣"
    INDEX 00 35:31:35
    INDEX 01 35:31:35
  TRACK 08 AUDIO
    TITLE "醉了"
    INDEX 00 40:32:39
    INDEX 01 40:32:39
  TRACK 09 AUDIO
    TITLE "幻觉"
    INDEX 00 45:09:41
    INDEX 01 45:09:41
  TRACK 10 AUDIO
    TITLE "不会改变"
    INDEX 00 50:50:13
    INDEX 01 50:50:13
  TRACK 11 AUDIO
    TITLE "命运还是巧合"
    INDEX 00 56:12:65
    INDEX 01 56:12:65
  TRACK 12 AUDIO
    TITLE "永远是个秘密"
    INDEX 00 61:44:17
    INDEX 01 61:44:17
  TRACK 13 AUDIO
    TITLE "约定的地方"
    INDEX 00 66:44:04
    INDEX 01 66:44:04
  TRACK 14 AUDIO
    TITLE "笼中鸟"
    INDEX 00 71:59:01
    INDEX 01 71:59:01
  TRACK 15 AUDIO
    TITLE "潮起潮落是什么都不为"
    INDEX 00 76:55:30
    INDEX 01 76:55:30
  TRACK 16 AUDIO
    TITLE "向阳花"
    INDEX 00 81:20:09
    INDEX 01 81:20:09
  TRACK 17 AUDIO
    TITLE "生活在地下"
    INDEX 00 91:02:09
    INDEX 01 91:02:09


0

主题

168

帖子

360

积分

乐坛新星

Rank: 2

积分
360

社区QQ达人

发表于 2016-3-9 16:43:43 | 显示全部楼层
谢天笑 大哥 你好~~~~~~~~~~~~~!

1

主题

176

帖子

853

积分

职业歌手

Rank: 3Rank: 3

积分
853

社区QQ达人

发表于 2016-3-9 20:51:45 | 显示全部楼层
怎么没有曲目列表????????????????????????

58

主题

116

帖子

1万

积分

流行教主

Rank: 6Rank: 6

积分
12895
发表于 2016-3-9 21:18:38 | 显示全部楼层

这应该是能找到最好音质的版本了吧,可惜没有cue,想转几首出来放手机里听的。

264

主题

732

帖子

3万

积分

天王巨星

Rank: 7Rank: 7Rank: 7

积分
37039

社区QQ达人灌水勋章分享勋章

 楼主| 发表于 2016-3-10 00:10:46 | 显示全部楼层

本来是想自己做CUE,但是没那个时间,等过段时间我再弄个cue把

30

主题

415

帖子

3622

积分

当红偶像

Rank: 4

积分
3622

社区QQ达人

发表于 2016-3-10 22:20:02 | 显示全部楼层
楼主有木马的吗?有的话一并发了吧!谢谢了很期待!

0

主题

226

帖子

357

积分

乐坛新星

Rank: 2

积分
357
发表于 2016-3-11 00:08:06 | 显示全部楼层
不插电啊,不错,很喜欢谢天笑!!!!
 成长值: 140

6

主题

185

帖子

1615

积分

VIP1

Rank: 4

积分
1615

社区QQ达人

发表于 2016-3-12 12:06:28 | 显示全部楼层
好东西!喜欢老谢的音乐~!下载了

1

主题

65

帖子

144

积分

新人会员,请认真回复,若恶意回复,直接封号

Rank: 1

积分
144
发表于 2016-3-12 19:08:20 | 显示全部楼层
这次演唱会真是大赞!找了好久,谢谢分享!

0

主题

164

帖子

329

积分

乐坛新星

Rank: 2

积分
329
发表于 2016-3-13 15:15:50 | 显示全部楼层
老谢的不插电,一定要感受一下了,非常感谢

0

主题

178

帖子

343

积分

乐坛新星

Rank: 2

积分
343
发表于 2016-3-13 18:18:29 | 显示全部楼层
好东西啊 感觉 不知道音质怎么样~~~

1

主题

306

帖子

617

积分

职业歌手

Rank: 3Rank: 3

积分
617
发表于 2016-3-15 16:54:09 | 显示全部楼层
缺CUE?可以自己制作一个,音质好就行!

0

主题

186

帖子

260

积分

乐坛新星

Rank: 2

积分
260
发表于 2016-3-16 11:22:41 | 显示全部楼层
很想听听谢天笑的不插电有是什么味道!

4

主题

1460

帖子

3287

积分

当红偶像

Rank: 4

积分
3287

社区QQ达人

发表于 2016-3-17 15:03:57 | 显示全部楼层
老谢的不插电,不错,多谢了!
您需要登录后才可以回帖 登录 | 注册

本版积分规则

快速回复 返回顶部 返回列表