最近看过此主题的会员

查看: 369|回复: 3

[华语] BN原抓:韩寒《18禁》/整轨WAV/BD

[复制链接]

47

主题

605

帖子

1万

积分

流行教主

Rank: 6Rank: 6

积分
11932

社区QQ达人

发表于 2019-8-29 23:30:21 | 显示全部楼层 |阅读模式

注册会员,获得无损资源下载地址,享受高品质音乐。

您需要 登录 才可以下载或查看,没有帐号?注册

x
封面.jpg
发行日期:2006年09月
⊙歌曲简介



《最好的事情》––韩寒首次尝试了摇滚曲风和自创臆想式唱腔,在整张唱片中独树一帜,带出振奋人心的听觉体验。



《私奔》––悠然的口琴声里,漾出浅浅的感伤。这是韩寒第一首呈现的单曲《私奔》的前奏。韩寒独特的嗓音,透出感性的人文气质外还带了些许的涩涩味道,衬上女声的浅唱低吟和捞仔出神入化的吉他伴奏,把最初demo音乐里的民谣风味,熨烫出韩寒创作的歌词里妥贴而清晰可见的忧伤来。



《偶像》––这首歌词有如一把凝炼已久的利刃,精准有力地切进这个时代隐晦的伤口,血流无声。韩寒总是能轻易挑开我们熟视无睹的外壳,用睿智的心直入内核。MV在韩寒导演的一手操控下,也成为另一个为歌曲注释的强大武器。隐于一派歌舞升平的繁华画面下,冷不防暗剑突发,适时击中人们的神经末梢,直捣人心,引出一代人的内省与共鸣。层层迭进的节奏与呐喊中,"偶像"分崩离析,时代却兀自前行。



《春光》––爱情是《春光》的母题,无论歌曲抑或MV。冗长的序幕中只有环境中若有若无的背景声,韩寒用他独特的影像语言,记载了一些与爱有关的传说。



音乐旋律响起,主人公们掌心里的感情线,才开始枝蔓伸延。他们不同的面貌,同样在"失语"的精神状态下,由破碎的影像语言,拼凑出美到极至的色彩,修葺成就爱的宫殿,即便,那在旁人眼中只是棚屋。真正的爱情,无关财富,无关流言。



《混世》––由知名音乐人刘彤为韩寒度身创作的强势好歌,有国内顶级乐手:吉他刘麟、贝司张岭强强联手鼎力加盟。在渐行渐强的节奏里,韩寒的歌声坚定、任性,在酣畅淋漓的最强音中,彰显出对世俗的不妥协,与"混世"中惟我独尊的气势。他不被任何传统束缚的思维,秉承了歌曲词意中的黑色幽默与嘲讽,全部呈现在MV情节与道具等细节里。



《空城记》––生活的种种,被韩寒写如歌中,歌曲有些暗地里忧伤的意味,吁叹一些无法改变的现状,却也温柔动听,黑白剪影里,韩寒的每个侧面都被记录,这就是最真实的生活,最真实的城市,最真实的韩寒。



《最差的时光》––被韩寒戏称为本年度最缓慢的流行歌曲,这首歌旋律舒缓、词境简约,如诗般隽永优美。MV如同音乐本身的"序曲"特质,被韩寒诠释为所有情节关联的"音乐电影录像"开篇。每一帧画面承载了几位主人公最初的光荣与梦想,通过音符巨大的张力,透露出一种欲言又止的推心置腹。明明伸手朝向屏幕,却能触摸到每个人自己心底竭尽一切光景,用理想抵死筑守的乌托邦。



《无题》––无题即一切主题,仔细聆听才能发现,这也许是一切的主旨也未可说。朗朗上口的旋律,是韩寒唱片中稍早时候制作完成的,稍显清涩稚拙,却也真实可触。



《追梦人》《我》––出于对原曲与词作的喜爱与欣赏,对这两首歌重新编曲演绎,呈现出不一般的意味,同时也对这两首歌表示了韩寒的敬意。《我》的MV独道地选用韩寒赛车全程记录,带大家透过韩寒的车窗,洞悉赛场风云,并领略一次全年最佳撞车的震撼情境。

很后悔当年没买豪华版,一旦错过,追悔莫及!买了以后认真看看制作团队,发现了捞仔、刘麟、张岭这些屌人竟然在列,好厉害的样子,个人最喜欢《混世》,喜欢韩少的就下着听听吧,哈哈
曲目:
1.最好的事情
2.私奔
3.偶像
4.春光
5.混世
6.空城记
7.最差的时光
8.无题
9.追梦人
10.我
******************分割线**********************
Exact Audio Copy V1.2 from 12. August 2016

EAC 抓取日志文件从26. 八月 2019, 12:07

韩寒 / 18禁

使用驱动器  :PLDS    DVDROM DH16D6SH   Adapter: 1  ID: 0

读取模式      : 可靠Secure
使用精确流     : 是
清空音频缓存    : 是
使用 C2 指示器 : 否

读取偏移校正:               : 6
读取 Lead-In 和 Lead-Out : 否
用静音填充抓取中丢失偏移的采样       : 是
去除首尾静音块               : 否
在CRC 计算中使用了空样本       : 是
已用接口                  : Win NT 及 2000 本地 Win32 接口

所用输出模式: : 内部 WAV 函数
样本格式    : 44.100 Hz; 16 Bit; 立体声

已抓取 CD 的 TOC

     音轨 |    起始    |    长度    |  起始扇区  |  结束扇区  
    --------------------------------------------
      1 |  0:00.00 |  4:09.71 |      0 |  18745
      2 |  4:09.71 |  3:32.48 |  18746 |  34693
      3 |  7:42.44 |  4:14.04 |  34694 |  53747
      4 | 11:56.48 |  4:12.08 |  53748 |  72655
      5 | 16:08.56 |  4:16.20 |  72656 |  91875
      6 | 20:25.01 |  3:55.74 |  91876 | 109574
      7 | 24:21.00 |  3:22.56 | 109575 | 124780
      8 | 27:43.56 |  4:01.21 | 124781 | 142876
      9 | 31:45.02 |  4:17.54 | 142877 | 162205
     10 | 36:02.56 |  3:25.20 | 162206 | 177600

范围状态及错误

已选择范围

     文件名 E:\自购CD\韩寒 - 18禁韩寒 - 18禁.wav

     峰值电平 98.8 %
     抓取速度 5.3 X
     范围质量 100.0 %
     复制 CRC 298A3046
     复制成功

没有错误发生

AccurateRip 摘要

音轨  1  精确地校准抓取  3)  [9EBDE5BC]  (AR v2)
音轨  2  精确地校准抓取  3)  [E6345ABA]  (AR v2)
音轨  3  精确地校准抓取  3)  [BFD56AB6]  (AR v2)
音轨  4  精确地校准抓取  3)  [18C172D8]  (AR v2)
音轨  5  精确地校准抓取  3)  [BF11003F]  (AR v2)
音轨  6  精确地校准抓取  3)  [919FEC12]  (AR v2)
音轨  7  精确地校准抓取  3)  [93C8A0B8]  (AR v2)
音轨  8  精确地校准抓取  3)  [D8C0EBF8]  (AR v2)
音轨  9  精确地校准抓取  3)  [2BC1D989]  (AR v2)
音轨 10  精确地校准抓取  3)  [CD4823AA]  (AR v2)

所有音轨精确校准抓取

状态报告结尾

---- CUETools DB Plugin V2.1.6

[CTDB TOCID: x17awXE6haTQWoXkWo3TVAlDbZQ-] found
Submit result: x17awXE6haTQWoXkWo3TVAlDbZQ- has been confirmed
Track | CTDB Status
  1   | (5/5) Accurately ripped
  2   | (5/5) Accurately ripped
  3   | (5/5) Accurately ripped
  4   | (5/5) Accurately ripped
  5   | (5/5) Accurately ripped
  6   | (5/5) Accurately ripped
  7   | (5/5) Accurately ripped
  8   | (5/5) Accurately ripped
  9   | (5/5) Accurately ripped
10   | (5/5) Accurately ripped

==== 记录校验日志 042A23C3CA7FF47D6A7C9A886D25844576124123C08343D1FE8F77ABFCE0FA7C ====


******************分割线**********************
游客,如果您要查看本帖隐藏内容请回复

评分

参与人数 1CD +240 收起 理由
最终之战 + 240 感谢分享资源,CD包因你而精彩.

查看全部评分





BN原抓:左小祖咒《走失的主人20周年纪念版》/整轨WAV/BD
fennnnny原抓:the delta saints-Death Letter Jubilee 2013/FLAC/分轨/BD

194

主题

1356

帖子

6万

积分

天王巨星

Rank: 7Rank: 7Rank: 7

积分
60740

社区QQ达人灌水勋章

发表于 2019-9-1 22:21:44 | 显示全部楼层
这张一定要听,多谢分享
 成长值: 580

6

主题

139

帖子

276

积分

VIP1

Rank: 4

积分
276
发表于 2019-9-8 22:43:42 | 显示全部楼层
我真的是才知道原来韩寒有出过专辑,孤陋寡闻了,感谢分享!

519

主题

1803

帖子

6万

积分

天王巨星

Rank: 7Rank: 7Rank: 7

积分
62389

社区QQ达人

发表于 2019-9-12 05:55:40 | 显示全部楼层
韩寒还有什么不会的吗         
您需要登录后才可以回帖 登录 | 注册

本版积分规则

快速回复 返回顶部 返回列表