最近看过此主题的会员

查看: 257|回复: 4

[华语] BN原抓:左小祖咒《走失的主人20周年纪念版》/整轨WAV/BD

[复制链接]

47

主题

605

帖子

1万

积分

流行教主

Rank: 6Rank: 6

积分
11926

社区QQ达人

发表于 2019-8-29 22:58:57 | 显示全部楼层 |阅读模式

注册会员,获得无损资源下载地址,享受高品质音乐。

您需要 登录 才可以下载或查看,没有帐号?注册

x
封面.jpg
前言
这张专辑是20年前用吉他贝斯鼓三大件做的,没有使用合成器等电子设备,我个人演奏了一些多种乐器,在每首歌后有标明。专辑制作阶段由于经费,大环境等原因,陆续出了多个版本,都不满意,2008年我召集原班人马NO乐队进行一小部分歌曲的补录与修复,今年是这张专辑诞辰20周年,这也是我的第一张专辑,邀请混音师李士先和老搭档方无行把这张专辑进行重新缩混,以此纪念。
                                                                                    -------左小祖咒2018年10月31日
曲目:
01 走失的主人5:11
02 正宗4:13
03 新长安4:06
04 阿丝玛4:53
05 让我再见一次大夫6:09
06关河令4:44
07 勋章之梦4:20
08 六枝花 5:11
09 媚笑阳台 5:45
****************分割线********************
Exact Audio Copy V1.2 from 12. August 2016

EAC 抓取日志文件从29. 八月 2019, 16:43

左小祖咒 / 走失的主人20周年纪念版

使用驱动器  :PLDS    DVDROM DH16D6SH   Adapter: 1  ID: 0

读取模式      : 可靠Secure
使用精确流     : 是
清空音频缓存    : 是
使用 C2 指示器 : 否

读取偏移校正:               : 6
读取 Lead-In 和 Lead-Out : 否
用静音填充抓取中丢失偏移的采样       : 是
去除首尾静音块               : 否
在CRC 计算中使用了空样本       : 是
已用接口                  : Win NT 及 2000 本地 Win32 接口

所用输出模式: : 内部 WAV 函数
样本格式    : 44.100 Hz; 16 Bit; 立体声

已抓取 CD 的 TOC

     音轨 |    起始    |    长度    |  起始扇区  |  结束扇区  
    --------------------------------------------
      1 |  0:00.00 |  5:11.61 |      0 |  23385
      2 |  5:11.61 |  4:13.60 |  23386 |  42420
      3 |  9:25.46 |  4:06.35 |  42421 |  60905
      4 | 13:32.06 |  4:53.33 |  60906 |  82913
      5 | 18:25.39 |  6:09.17 |  82914 | 110605
      6 | 24:34.56 |  4:44.73 | 110606 | 131978
      7 | 29:19.54 |  4:20.21 | 131979 | 151499
      8 | 33:40.00 |  5:11.06 | 151500 | 174830
      9 | 38:51.06 |  5:44.09 | 174831 | 200639

范围状态及错误

已选择范围

     文件名 E:\自购CD\左小祖咒 - 走失的主人20周年纪念版左小祖咒 - 走失的主人20周年纪念版.wav

     峰值电平 99.8 %
     抓取速度 5.5 X
     范围质量 100.0 %
     复制 CRC 027C5832
     复制成功

没有错误发生
AccurateRip 摘要

音轨  1  在数据库中不存在
音轨  2  在数据库中不存在
音轨  3  在数据库中不存在
音轨  4  在数据库中不存在
音轨  5  在数据库中不存在
音轨  6  在数据库中不存在
音轨  7  在数据库中不存在
音轨  8  在数据库中不存在
音轨  9  在数据库中不存在

没有任何音轨在 AccurateRip 数据库中有记录

状态报告结尾

---- CUETools DB Plugin V2.1.6

[CTDB TOCID: HZC9glOfeL0eDO0Zl02F9yl_HQA-] found
Submit result: HZC9glOfeL0eDO0Zl02F9yl_HQA- has been confirmed
Track | CTDB Status
  1   | (1/1) Accurately ripped
  2   | (1/1) Accurately ripped
  3   | (1/1) Accurately ripped
  4   | (1/1) Accurately ripped
  5   | (1/1) Accurately ripped
  6   | (1/1) Accurately ripped
  7   | (1/1) Accurately ripped
  8   | (1/1) Accurately ripped
  9   | (1/1) Accurately ripped

==== 记录校验日志 C1DC96F57DFEBCDD46D9E761E0A658862C277533F512E175B4DB48CF04510855 ====

****************分割线********************
游客,如果您要查看本帖隐藏内容请回复

评分

参与人数 1CD +240 收起 理由
最终之战 + 240

查看全部评分





BN原抓:左小祖咒《重庆女人》/整轨WAV/BD
BN原抓:韩寒《18禁》/整轨WAV/BD

256

主题

959

帖子

5万

积分

天王巨星

Rank: 7Rank: 7Rank: 7

积分
56244
发表于 2019-8-29 23:12:34 | 显示全部楼层
早期的作品,很好的。

111

主题

1706

帖子

4万

积分

天王巨星

Rank: 7Rank: 7Rank: 7

积分
49194

社区QQ达人

发表于 2019-8-29 23:58:39 | 显示全部楼层
谢谢楼主!拿下洗版

194

主题

1354

帖子

6万

积分

天王巨星

Rank: 7Rank: 7Rank: 7

积分
60350

社区QQ达人灌水勋章

发表于 2019-9-1 22:06:19 | 显示全部楼层
经典中的经典,多谢分享

519

主题

1803

帖子

6万

积分

天王巨星

Rank: 7Rank: 7Rank: 7

积分
62388

社区QQ达人

发表于 2019-9-12 05:56:52 | 显示全部楼层
感谢楼主分享,左小老师牛逼      
您需要登录后才可以回帖 登录 | 注册

本版积分规则

快速回复 返回顶部 返回列表