最近看过此主题的会员

查看: 242|回复: 3

[华语] BN原抓:左小祖咒《庙会之旅20周年纪念版》/WAV整轨/BD

[复制链接]

47

主题

605

帖子

1万

积分

流行教主

Rank: 6Rank: 6

积分
11926

社区QQ达人

发表于 2019-8-29 22:22:22 | 显示全部楼层 |阅读模式

注册会员,获得无损资源下载地址,享受高品质音乐。

您需要 登录 才可以下载或查看,没有帐号?注册

x
本帖最后由 bnjhxyr 于 2019-8-29 22:51 编辑

封面.jpg
这个,应该纯属粉丝才会收藏了吧,买了还没来得及听就来分享给大家,估计跟之前的没什么太大区别

曲目:
1. 皮条客 03:44
2. 羞辱主义 04:59
3. 苦鬼 05:05
4. 冤枉 03:35
5. 祭日之星 03:17
6. 果皮箱 03:13
7. 家父 06:29
8. 除夕 05:24
9. 莫非 05:08

*****************分割线*******************
Exact Audio Copy V1.2 from 12. August 2016


EAC 抓取日志文件从29. 八月 2019, 18:10


左小祖咒 / 庙会之旅20周年纪念版


使用驱动器  :PLDS    DVDROM DH16D6SH   Adapter: 1  ID: 0


读取模式      : 可靠Secure
使用精确流     : 是
清空音频缓存    : 是
使用 C2 指示器 : 否


读取偏移校正:               : 6
读取 Lead-In 和 Lead-Out : 否
用静音填充抓取中丢失偏移的采样       : 是
去除首尾静音块               : 否
在CRC 计算中使用了空样本       : 是
已用接口                  : Win NT 及 2000 本地 Win32 接口


所用输出模式: : 内部 WAV 函数
样本格式    : 44.100 Hz; 16 Bit; 立体声

已抓取 CD 的 TOC


     音轨 |    起始    |    长度    |  起始扇区  |  结束扇区  
    --------------------------------------------
      1 |  0:00.00 |  3:47.08 |      0 |  17032
      2 |  3:47.08 |  4:59.22 |  17033 |  39479
      3 |  8:46.30 |  5:05.66 |  39480 |  62420
      4 | 13:52.21 |  3:35.34 |  62421 |  78579
      5 | 17:27.55 |  3:17.32 |  78580 |  93386
      6 | 20:45.12 |  3:13.47 |  93387 | 107908
      7 | 23:58.59 |  6:29.38 | 107909 | 137121
      8 | 30:28.22 |  5:24.41 | 137122 | 161462
      9 | 35:52.63 |  5:07.30 | 161463 | 184517

范围状态及错误


已选择范围


     文件名 E:\自购CD\左小祖咒 - 庙会之旅20周年纪念版左小祖咒 - 庙会之旅20周年纪念版.wav


     峰值电平 97.6 %
     抓取速度 5.4 X
     范围质量 100.0 %
     复制 CRC 697AAA4F
     复制成功


没有错误发生

AccurateRip 摘要

音轨  1  在数据库中不存在
音轨  2  在数据库中不存在
音轨  3  在数据库中不存在
音轨  4  在数据库中不存在
音轨  5  在数据库中不存在
音轨  6  在数据库中不存在
音轨  7  在数据库中不存在
音轨  8  在数据库中不存在
音轨  9  在数据库中不存在

没有任何音轨在 AccurateRip 数据库中有记录


状态报告结尾


---- CUETools DB Plugin V2.1.6


[CTDB TOCID: O.bdgjMOCZmgsi0jgB.eYSAq2hU-] found
Submit result: O.bdgjMOCZmgsi0jgB.eYSAq2hU- has been confirmed
Track | CTDB Status
  1   | (1/1) Accurately ripped
  2   | (1/1) Accurately ripped
  3   | (1/1) Accurately ripped
  4   | (1/1) Accurately ripped
  5   | (1/1) Accurately ripped
  6   | (1/1) Accurately ripped
  7   | (1/1) Accurately ripped
  8   | (1/1) Accurately ripped
  9   | (1/1) Accurately ripped

==== 记录校验日志 2A09C7427A17E5CE1AA95906D3F595BB152D917F01B4275EEA198D1E148AFC4F ====



*****************分割线*******************
游客,如果您要查看本帖隐藏内容请回复


评分

参与人数 1CD +240 收起 理由
最终之战 + 240 很棒的帖子,支持

查看全部评分





原抓:《劲曲萨斯风》 WAV+CUE/百度盘
BN原抓:左小祖咒《重庆女人》/整轨WAV/BD

256

主题

959

帖子

5万

积分

天王巨星

Rank: 7Rank: 7Rank: 7

积分
56244
发表于 2019-8-29 23:10:09 | 显示全部楼层
感谢楼主分享。

111

主题

1706

帖子

4万

积分

天王巨星

Rank: 7Rank: 7Rank: 7

积分
49194

社区QQ达人

发表于 2019-8-29 23:55:54 | 显示全部楼层
谢谢楼主!继续洗版辛苦了

194

主题

1354

帖子

6万

积分

天王巨星

Rank: 7Rank: 7Rank: 7

积分
60350

社区QQ达人灌水勋章

发表于 2019-9-1 22:13:47 | 显示全部楼层
不知道有几个版本,眼花缭乱
您需要登录后才可以回帖 登录 | 注册

本版积分规则

快速回复 返回顶部 返回列表