最近看过此主题的会员

查看: 250|回复: 4

[华语] BN原抓:左小祖咒《重庆女人》/整轨WAV/BD

[复制链接]

47

主题

605

帖子

1万

积分

流行教主

Rank: 6Rank: 6

积分
11932

社区QQ达人

发表于 2019-8-29 22:43:11 | 显示全部楼层 |阅读模式

注册会员,获得无损资源下载地址,享受高品质音乐。

您需要 登录 才可以下载或查看,没有帐号?注册

x
本帖最后由 bnjhxyr 于 2019-8-29 22:54 编辑

封面.jpg

简介  · · · · · ·  《重庆女人》是左小祖咒第30张录音室专辑,以情歌为主,包含电影歌曲以及之前个别歌曲的改编版。它不是传统意义上的情歌专辑,全长约40分钟,共11首歌曲。

曲目
01 重庆女人4:15
02 哭吧,我最爱的人4:41
03 左小祖咒的公众号3:49
04 双鱼的傻幸福3:29
05左小祖咒不交作业2:54
06你之所以是你(电影《西虹市首富》片尾歌)3:39
07 什么时候把欠我的钱还了(钱歌)2:40
08你之所以是你REMIX 3:55
09一个美丽的重庆女人的老公是贝斯手3:54
10水上生活 3:32
11我的公众号3:56
*********************分割线**************************
Exact Audio Copy V1.2 from 12. August 2016

EAC 抓取日志文件从29. 八月 2019, 16:26

左小祖咒 / 重庆女人

使用驱动器  :PLDS    DVDROM DH16D6SH   Adapter: 1  ID: 0

读取模式      : 可靠Secure
使用精确流     : 是
清空音频缓存    : 是
使用 C2 指示器 : 否

读取偏移校正:               : 6
读取 Lead-In 和 Lead-Out : 否
用静音填充抓取中丢失偏移的采样       : 是
去除首尾静音块               : 否
在CRC 计算中使用了空样本       : 是
已用接口                  : Win NT 及 2000 本地 Win32 接口

所用输出模式: : 内部 WAV 函数
样本格式    : 44.100 Hz; 16 Bit; 立体声

已抓取 CD 的 TOC

     音轨 |    起始    |    长度    |  起始扇区  |  结束扇区  
    --------------------------------------------
      1 |  0:00.00 |  4:15.21 |      0 |  19145
      2 |  4:15.21 |  4:41.37 |  19146 |  40257
      3 |  8:56.58 |  3:49.07 |  40258 |  57439
      4 | 12:45.65 |  3:29.47 |  57440 |  73161
      5 | 16:15.37 |  2:45.72 |  73162 |  85608
      6 | 19:01.34 |  3:29.66 |  85609 | 101349
      7 | 22:31.25 |  2:39.54 | 101350 | 113328
      8 | 25:11.04 |  3:55.62 | 113329 | 131015
      9 | 29:06.66 |  3:54.10 | 131016 | 148575
     10 | 33:01.01 |  3:32.74 | 148576 | 164549
     11 | 36:34.00 |  3:55.67 | 164550 | 182241

范围状态及错误

已选择范围

     文件名 E:\自购CD\左小祖咒 - 重庆女人\左小祖咒 - 重庆女人.wav

     峰值电平 100.0 %
     抓取速度 5.3 X
     范围质量 99.9 %
     复制 CRC 6F9C9006
     复制成功

没有错误发生

AccurateRip 摘要

音轨  1  在数据库中不存在
音轨  2  在数据库中不存在
音轨  3  在数据库中不存在
音轨  4  在数据库中不存在
音轨  5  在数据库中不存在
音轨  6  在数据库中不存在
音轨  7  在数据库中不存在
音轨  8  在数据库中不存在
音轨  9  在数据库中不存在
音轨 10  在数据库中不存在
音轨 11  在数据库中不存在

没有任何音轨在 AccurateRip 数据库中有记录

状态报告结尾

---- CUETools DB Plugin V2.1.6

[CTDB TOCID: iI7Xm.9mKMefzJyxj2yWIkeyHuI-] disk not present in database
Submit result: iI7Xm.9mKMefzJyxj2yWIkeyHuI- has been uploaded

==== 记录校验日志 9EE00529A37D7E0D8F9EC4C80889F665DC65D01A9A30A80828B4855091107B69 ====
*********************分割线**************************

游客,如果您要查看本帖隐藏内容请回复

评分

参与人数 1CD +240 收起 理由
最终之战 + 240 感谢分享资源,CD包因你而精彩.

查看全部评分





BN原抓:左小祖咒《庙会之旅20周年纪念版》/WAV整轨/BD
BN原抓:左小祖咒《走失的主人20周年纪念版》/整轨WAV/BD

258

主题

968

帖子

5万

积分

天王巨星

Rank: 7Rank: 7Rank: 7

积分
56410
发表于 2019-8-29 23:06:21 | 显示全部楼层
这条鱼画的很"魔性"!

111

主题

1712

帖子

4万

积分

天王巨星

Rank: 7Rank: 7Rank: 7

积分
49199

社区QQ达人

发表于 2019-8-29 23:54:36 | 显示全部楼层
洗个版谢谢楼主
 成长值: 34665

1万

主题

2万

帖子

77万

积分

音乐掌门人

Rank: 20Rank: 20Rank: 20Rank: 20Rank: 20

积分
772059

名人勋章社区QQ达人分享勋章精华帖达人灌水勋章

发表于 2019-8-30 09:28:52 | 显示全部楼层
左小的已经收不起了,产量太高了

本人发布的资源,有密码的话都是:www.cdbao.net
关于链接失效的说明(度盘好友分享的说明)
https://www.cdbao.net/thread-117499-1-1.html     
紧急通告:115,快传等网盘取消了分享功能礼包码链接全部失效
https://www.cdbao.net/thread-122759-1-1.html

194

主题

1356

帖子

6万

积分

天王巨星

Rank: 7Rank: 7Rank: 7

积分
60740

社区QQ达人灌水勋章

发表于 2019-9-1 22:17:17 | 显示全部楼层
这张很是很不错的,很棒
您需要登录后才可以回帖 登录 | 注册

本版积分规则

快速回复 返回顶部 返回列表