查看: 426|回复: 9

[LIVE] 群星VIUTV《家驹...爱心延续慈善演唱会》2016/MP4&ts/百度

[复制链接]

17

主题

262

帖子

4241

积分

人气天王

Rank: 5Rank: 5

积分
4241

社区QQ达人

发表于 2016-10-4 21:12:33 | 显示全部楼层 |阅读模式

注册会员,获得无损资源下载地址,享受高品质音乐。

您需要 登录 才可以下载或查看,没有帐号?注册

x
本帖最后由 metallbb 于 2016-10-4 21:16 编辑

VIUTV家驹爱心延续慈善演唱会2016【1080P】.mp4.jpg
General
Complete name                  : G:\BaiduYunDownload\VIUTV家驹爱心延续慈善演唱会2016【1080P】.mp4
Format                         : MPEG-4
Format profile                 : Base Media
Codec ID                       : isom (isom/iso2/avc1/mp41)
File size                      : 3.53 GiB
Duration                       : 2h 57mn
Overall bit rate               : 2 851 Kbps
Writing application            : Lavf55.19.102

Video
ID                             : 1
Format                         : AVC
Format/Info                    : Advanced Video Codec
Format profile                 : [email protected]
Format settings, CABAC         : Yes
Format settings, ReFrames      : 3 frames
Codec ID                       : avc1
Codec ID/Info                  : Advanced Video Coding
Duration                       : 2h 57mn
Bit rate                       : 2 719 Kbps
Width                          : 1 920 pixels
Height                         : 1 080 pixels
Display aspect ratio           : 16:9
Frame rate mode                : Constant
Frame rate                     : 25.000 fps
Color space                    : YUV
Chroma subsampling             : 4:2:0
Bit depth                      : 8 bits
Scan type                      : Progressive
Bits/(Pixel*Frame)             : 0.052
Stream size                    : 3.36 GiB (95%)
Color range                    : Limited
Color primaries                : BT.709
Transfer characteristics       : BT.709
Matrix coefficients            : BT.709

Audio
ID                             : 2
Format                         : AAC
Format/Info                    : Advanced Audio Codec
Format profile                 : LC
Codec ID                       : 40
Duration                       : 2h 57mn
Bit rate mode                  : Constant
Bit rate                       : 126 Kbps
Channel(s)                     : 2 channels
Channel positions              : Front: L R
Sampling rate                  : 44.1 KHz
Frame rate                     : 43.066 fps (1024 spf)
Compression mode               : Lossy
Stream size                    : 159 MiB (4%)
Default                        : Yes
Alternate group                : 1


下载地址:

游客,如果您要查看本帖隐藏内容请回复




评分

参与人数 1CD +400 包子 +10 收起 理由
最终之战 + 400 + 10 感谢分享资源,CD包因你而精彩.

查看全部评分




上一篇:萧煌奇《你是我的眼(TVBS全球中文音乐榜上榜)》720P/MP4/67M
下一篇:徐佳莹《树洞的声音(Legacy Taipei)》1080P/MP4/84M/百度

0

主题

228

帖子

603

积分

职业歌手

Rank: 3Rank: 3

积分
603

社区QQ达人

发表于 2016-10-4 22:11:21 | 显示全部楼层
谢谢分享  收下好碟


0

主题

338

帖子

1810

积分

当红偶像

Rank: 4

积分
1810

社区QQ达人

发表于 2016-10-4 22:22:41 | 显示全部楼层
加油加油,音乐分享精神不死!

0

主题

431

帖子

633

积分

职业歌手

Rank: 3Rank: 3

积分
633

社区QQ达人

发表于 2016-10-5 12:23:11 | 显示全部楼层
虽然,但是
也是童年难忘的记忆

1

主题

481

帖子

841

积分

职业歌手

Rank: 3Rank: 3

积分
841
发表于 2016-10-5 12:37:35 | 显示全部楼层
加油加油,音乐分享精神不死!

1

主题

249

帖子

9831

积分

人气天王

Rank: 5Rank: 5

积分
9831
发表于 2016-10-8 15:09:34 | 显示全部楼层
本帖最后由 wuxufei 于 2016-10-8 15:40 编辑

看过,不过还是进来顶一下。異種(馬來西亞樂隊)不错
补上目录:

00:43 - 13:08 [歲月無聲] - 周啟生13:20 - 17:26 [係要聽Rock&Roll] - Kolor&盧巧音
17:52 - 22:34 [無盡空虛] - Kolor&盧巧音
22:23 - 29:00 [無淚的遺憾] - Kolor&盧巧音
30:21 - 36:41 [農民X舊日的足跡] - 謝中傑
36:59 - 41:26 [大地] - ZolarWInd
41:37 - 44:58 [不可一世] - 鄧健弘
46:18 - 51:44 [早班火車] Cooper
52:07 - 56:03 [全是愛] - 顧芮寧
56:16 - 1:02:26 [不再猶豫] - DearJane
1:03:27 - 1:08:09 [冷雨夜] - 梁詠琪
1:09:24 - 1:13:38 [真的愛你] - 梁詠琪&譚芷昀
1:14:10 - 1:19:20 [午夜怨曲] - 異種(馬來西亞樂隊)
1:20:11 - 1:23:29 [短暫的溫柔] - 林曉培
1:24:17 - 1:27:49 [赤紅熱血] - Zen樂隊
1:27:55 - 1:31:58 [午夜迷牆] - Zen樂隊
1:32:59 - 1:38:27 [情人] - GEM from UNIVERSE
1:38:27 - 1:42:10 [喜歡你] - GEM from UNIVERSE
1:42:52 - 1:47:33 [遙望] - RubberBand
1:48:00 - 1:52:17 [遙遠的Paradise] - RubberBand
1:52:30 - 1:56:12 [阿拉伯跳舞女郎] - 側田
1:56:41 -  2:00:49[歲月無聲] - 草蜢
2:00:52 - 2:04:59 [俾面派對] - 草蜢
2:05:26 - 2:09:40 [長城] - 太極
2:09:02 - 2:14:00 [Amani] - 太極
2:14:26 - 2:18:25 [我是憤怒] - 太極&葉世榮
2:19:22 - 2:22:52 [金屬狂人] - Paul&世榮
2:24:43 - 2:30:23 [再見理想]
2:33:10 - 2:38:09 [灰色軌跡]
2:39:03 - 2:44:24 [光輝歲月]
2:44:29 - 2:51:23 [海闊天空]


0

主题

261

帖子

305

积分

乐坛新星

Rank: 2

积分
305

社区QQ达人

发表于 2016-10-20 09:48:36 | 显示全部楼层
黄家驹,一个时代的印记。可惜,天妒英才!
 成长值: 280

0

主题

45

帖子

106

积分

VIP1

Rank: 4

积分
106
发表于 2016-11-2 11:54:59 | 显示全部楼层
这个不错哦 下载看看效果!谢谢分享

0

主题

158

帖子

242

积分

乐坛新星

Rank: 2

积分
242
发表于 2016-11-4 11:52:47 | 显示全部楼层
群星VIUTV《家驹...爱心延续

0

主题

25

帖子

38

积分

新人会员,请认真回复,若恶意回复,直接封号

Rank: 1

积分
38
发表于 2016-11-13 02:38:28 | 显示全部楼层

加油加油,音乐分享精神不死!
您需要登录后才可以回帖 登录 | 注册

本版积分规则

快速回复 返回顶部 返回列表