查看: 421|回复: 4

[欧美摇滚] 美残死:Eviscerated《Gorging On Rotting Entrails》2007/ISOWV/BD+115

[复制链接]
 成长值: 19650

6540

主题

1万

帖子

8万

积分

音乐掌门人

Rank: 20Rank: 20Rank: 20Rank: 20Rank: 20

积分
84397

名人勋章社区QQ达人分享勋章精华帖达人灌水勋章

发表于 2015-8-15 03:22:43 | 显示全部楼层 |阅读模式

注册会员,获得无损资源下载地址,享受高品质音乐。

您需要 登录 才可以下载或查看,没有帐号?注册

x
65176_logo.jpg
65176_photo.jpg

Eviscerated

Country of origin:
    United States
Location:
    San Antonio, Texas
Status:
    Active
Formed in:
    2004

Genre:
    Brutal Death Metal
Lyrical themes:
    Blood, Gore, Death, Rape
Current label:
    Sevared Records

Years active:
    2004-present

=================================
157872.jpg
Eviscerated (US) - Gorging On Rotting Entrails

Жанр: Brutal Death Metal
Год выпуска диска: 2007
Производитель диска: Sevared Records SR45
Аудио кодек: WavPack
Тип рипа: iso.wv
Битрейт аудио: lossless
Продолжительность: 28:15
Источник: Original CD

Трэклист:
1. Suicide by Self Disembowelment 02:58
2. Seminal Explosion 03:03
3. Facial Reconstructive Surgery 02:42
4. Deformity by Incineration 02:56
5. Gorging On Rotting Entrails 03:14
6. Severed Foot Fuck Fetish 02:33
7. Engulfed by Disgust 02:30
8. Fetal Consumption 01:48
9. Toilet Bowl Bowels 03:40
10. Penetrating of the Rotting Orifice 02:53

Exact Audio Copy V1.0 beta 4 from 7. December 2014
Отчёт EAC об извлечении, выполненном 14. июня 2015, 7:57
Eviscerated / Gorging on Rotting Entrails
Дисковод: HL-DT-STDVDRAM GH24NSB0 Adapter: 1 ID: 0
Режим чтения : Достоверность
Использование точного потока : Да
Отключение кэша аудио : Да
Использование указателей C2 : Нет
Коррекция смещения при чтении : 6
Способность читать области Lead-in и Lead-out : Нет
Заполнение пропущенных сэмплов тишиной : Да
Удаление блоков с тишиной в начале и конце : Нет
При вычислениях CRC использовались нулевые сэмплы : Да
Интерфейс : Встроенный Win32-интерфейс для Win NT/2000
Выходной формат : Пользовательский кодировщик
Выбранный битрейт : 128 kBit/s
Качество : Высокий
Добавление ID3-тега : Да
Утилита сжатия : C:\Program Files (x86)\Exact Audio Copy\WavPack\wavpack.exe
Дополнительные параметры : -w "Artist=%artist%" -w "Title=%title%" -w "Album=%albumtitle%" -w "Year=%year%" -w "Track=%tracknr%" -w "Genre=%genre%" -h %source% %dest%
TOC извлечённого CD
Трек | Старт | Длительность | Начальный сектор | Конечный сектор
---------------------------------------------------------------------
1 | 0:00.00 | 2:57.71 | 0 | 13345
2 | 2:57.71 | 3:02.68 | 13346 | 27063
3 | 6:00.64 | 2:42.08 | 27064 | 39221
4 | 8:42.72 | 2:55.40 | 39222 | 52386
5 | 11:38.37 | 3:14.16 | 52387 | 66952
6 | 14:52.53 | 2:32.64 | 66953 | 78416
7 | 17:25.42 | 2:29.37 | 78417 | 89628
8 | 19:55.04 | 1:47.63 | 89629 | 97716
9 | 21:42.67 | 3:39.54 | 97717 | 114195
10 | 25:22.46 | 2:52.47 | 114196 | 127142
Характеристики диапазона извлечения и сообщения об ошибках
Выбранный диапазон
Имя файла F:\Guttural Lossless\Eviscerated - Gorging on Rotting Entrails.wav
Пиковый уровень 100.0 %
Скорость извлечения 0.2 X
Качество диапазона 99.3 %
CRC теста 7EB2095C
CRC копии 7EB2095C
Копирование... OK
Ошибок не произошло
AccurateRip: сводка
Трек 1 : извлечено точно (доверие 2) [20DE97D2] (AR v1)
Трек 2 : извлечено точно (доверие 2) [3E4171A7] (AR v1)
Трек 3 : извлечено точно (доверие 2) [A1512915] (AR v1)
Трек 4 : извлечено точно (доверие 2) [53F6E0B9] (AR v1)
Трек 5 : извлечено точно (доверие 2) [1857A575] (AR v1)
Трек 6 : извлечено точно (доверие 2) [918173C9] (AR v1)
Трек 7 : извлечено точно (доверие 2) [3C85CA06] (AR v1)
Трек 8 : извлечено точно (доверие 2) [B125A3C1] (AR v1)
Трек 9 : извлечено точно (доверие 2) [5F7423D8] (AR v1)
Трек 10 : извлечено точно (доверие 2) [3DCB520A] (AR v1)
Все треки извлечены точно
Конец отчёта
---- CUETools DB Plugin V2.1.4
[CTDB TOCID: FQ36Ahf5jG06QpsPs0vTbhqcn.s-] found
Submit result: FQ36Ahf5jG06QpsPs0vTbhqcn.s- has been confirmed
Track | CTDB Status
1 | (1/1) Accurately ripped
2 | (1/1) Accurately ripped
3 | (1/1) Accurately ripped
4 | (1/1) Accurately ripped
5 | (1/1) Accurately ripped
6 | (1/1) Accurately ripped
7 | (1/1) Accurately ripped
8 | (1/1) Accurately ripped
9 | (1/1) Accurately ripped
10 | (1/1) Accurately ripped
==== Контрольная сумма отчёта F18E9D9250A876197FC8B20E32DD83A1EA49A7F6D86EEB19B58A1EC8A1067F43 ====

====================================
百度下载:
游客,如果您要查看本帖隐藏内容请回复


115下载:
游客,如果您要查看本帖隐藏内容请回复



来自群组: 金属圣殿



上一篇:芬兰残死:DeepRed《Prophetic Luster》2015/APE/BD+115
下一篇:意残死:Brutal Murder《Death Squad》2010/FLAC/BD+115
关于链接失效的说明(度盘+115盘+快传 好友分享的说明)
http://www.cdbao.net/thread-117499-1-1.html     
紧急通告:115,快传等网盘取消了分享功能礼包码链接全部失效
http://www.cdbao.net/thread-122759-1-1.html

3083

主题

4258

帖子

55万

积分

音乐主神

Rank: 10Rank: 10Rank: 10

积分
553397

社区QQ达人精华帖达人分享勋章灌水勋章

发表于 2015-8-23 11:07:57 | 显示全部楼层
这么牛逼的资源居然没人顶,没天理啊

1

主题

4235

帖子

4437

积分

人气天王

Rank: 5Rank: 5

积分
4437

社区QQ达人

发表于 2016-8-25 17:12:49 | 显示全部楼层
好激动,终于找到这一张,大赞,大爱,支持了,赶紧下载,嘿嘿

0

主题

265

帖子

331

积分

乐坛新星

Rank: 2

积分
331
发表于 2016-8-25 20:19:21 | 显示全部楼层
谢谢版主分享好作品,谢谢楼主,金属乐太好听了,感激不尽

0

主题

262

帖子

379

积分

乐坛新星

Rank: 2

积分
379
发表于 2016-10-5 08:56:47 | 显示全部楼层
谢谢楼主分享!!!!!!!!!!!!
您需要登录后才可以回帖 登录 | 注册

本版积分规则

快速回复 返回顶部 返回列表