最近看过此主题的会员

查看: 1295|回复: 2

[欧美摇滚] 意残死:Brutal Murder《Death Squad》2010/FLAC/BD+115

[复制链接]
 成长值: 34725

1万

主题

2万

帖子

77万

积分

音乐掌门人

Rank: 20Rank: 20Rank: 20Rank: 20Rank: 20

积分
772241

名人勋章社区QQ达人分享勋章精华帖达人灌水勋章

发表于 2015-8-15 03:33:16 | 显示全部楼层 |阅读模式

注册会员,获得无损资源下载地址,享受高品质音乐。

您需要 登录 才可以下载或查看,没有帐号?注册

x
26174_logo.jpg
26174_photo.jpg

Brutal Murder

Country of origin:
    Italy
Location:
    Bergamo, Lombardy
Status:
    Active
Formed in:
    2001

Genre:
    Brutal Death Metal
Lyrical themes:
    Splatter, Gore
Current label:
    Unsigned/independent

Years active:
    1999-2001 (as Silver Day), 2001-present


===============================
folder.jpg
Brutal Murder - Death Squad

Жанр: Brutal Death Metal
Год издания: 2010
Издатель (лейбл): Aima Records
Страна исполнителя (группы): Italy
Аудиокодек: FLAC (*.flac)
Тип рипа: image+.cue
Битрейт аудио: lossless
Продолжительность: 43:27
Источник (релизер): Original CD
Наличие сканов в содержимом раздачи: да
Треклист:
01. Intro
02. Disfigured Your Face
03. The Suffering (The Prison In Hell)
04. Zombie Masochrist
05. She Devoures Cocks
06. Splatter Party
07. Bikers Death Squad
08. Eat Yourself
09. Maggots Infected Flesh
10. Medicomatose Defecation

Exact Audio Copy V1.0 beta 3 from 29. August 2011
EAC extraction logfile from 4. March 2013, 16:30
Brutal Murder / Death Squad
Used drive  : PIONEER DVD-RW  DVR-215D   Adapter: 3  ID: 1
Read mode               : Secure
Utilize accurate stream : Yes
Defeat audio cache      : Yes
Make use of C2 pointers : No
Read offset correction                      : 48
Overread into Lead-In and Lead-Out          : No
Fill up missing offset samples with silence : Yes
Delete leading and trailing silent blocks   : No
Null samples used in CRC calculations       : Yes
Used interface                              : Installed external ASPI interface
Used output format              : User Defined Encoder
Selected bitrate                : 1024 kBit/s
Quality                         : High
Add ID3 tag                     : Yes
Command line compressor         : C:\Program Files (x86)\Exact Audio Copy\Flac\flac.exe
Additional command line options : -8 -V -T "ARTIST=%artist%" -T "TITLE=%title%" -T "ALBUM=%albumtitle%" -T "DATE=%year%" -T "TRACKNUMBER=%tracknr%" -T "GENRE=%genre%" -T "COMMENT=%comment%" -T "BAND=%albuminterpret%" -T "COMPOSER=%composer%" %haslyrics%--tag-from-file=LYRICS="%lyricsfile%"%haslyrics% -T "TOTALTRACKS=%numtracks%" %hascover%--picture="%coverfile%"%hascover% %source% -o %dest%
TOC of the extracted CD
     Track |   Start  |  Length  | Start sector | End sector
    ---------------------------------------------------------
        1  |  0:00.00 |  0:43.07 |         0    |     3231
        2  |  0:43.07 |  3:48.67 |      3232    |    20398
        3  |  4:31.74 |  4:50.71 |     20399    |    42219
        4  |  9:22.70 |  3:53.34 |     42220    |    59728
        5  | 13:16.29 |  4:51.17 |     59729    |    81570
        6  | 18:07.46 |  4:05.44 |     81571    |    99989
        7  | 22:13.15 |  5:08.38 |     99990    |   123127
        8  | 27:21.53 |  2:52.42 |    123128    |   136069
        9  | 30:14.20 |  5:15.41 |    136070    |   159735
       10  | 35:29.61 |  7:56.56 |    159736    |   195491
Range status and errors
Selected range
     Filename H:\LOSSLESS_for_SARGE\Brutal Murder -2010- Death Squad\Brutal Murder - Death Squad.wav
     Peak level 100.0 %
     Extraction speed 6.8 X
     Range quality 99.9 %
     Test CRC 13EB39E7
     Copy CRC 13EB39E7
     Copy OK
No errors occurred
AccurateRip summary
Track  1  accurately ripped (confidence 1)  [F506AB67]  (AR v1)
Track  2  accurately ripped (confidence 1)  [E0619306]  (AR v1)
Track  3  accurately ripped (confidence 1)  [2F2F48A1]  (AR v1)
Track  4  accurately ripped (confidence 1)  [354E895A]  (AR v1)
Track  5  accurately ripped (confidence 1)  [6BD2BF01]  (AR v1)
Track  6  accurately ripped (confidence 1)  [105EC305]  (AR v1)
Track  7  accurately ripped (confidence 1)  [37821464]  (AR v1)
Track  8  accurately ripped (confidence 1)  [BCE88963]  (AR v1)
Track  9  accurately ripped (confidence 1)  [C53770B1]  (AR v1)
Track 10  accurately ripped (confidence 1)  [273C1EB3]  (AR v1)
All tracks accurately ripped
End of status report
---- CUETools DB Plugin V2.1.3
[CTDB TOCID: MepdrVeMHW_xc1LYC4glyu88SR0-] disk not present in database, Submit result: MepdrVeMHW_xc1LYC4glyu88SR0- has been uploaded
==== Log checksum 1BDDD5C181E4567F18A5B786C6A471A0033D79EA138DFB78FDAC40BB89FC13DE ====

=====================================
百度下载:
游客,如果您要查看本帖隐藏内容请回复


115下载:
游客,如果您要查看本帖隐藏内容请回复

来自群组: 金属圣殿




美残死:Eviscerated《Gorging On Rotting Entrails》2007/ISOWV/BD+115
美残死:Human Artifacts《The Principles Of Sickness》2007/FLAC/BD+115

本人发布的资源,有密码的话都是:www.cdbao.net
关于链接失效的说明(度盘好友分享的说明)
https://www.cdbao.net/thread-117499-1-1.html     
紧急通告:115,快传等网盘取消了分享功能礼包码链接全部失效
https://www.cdbao.net/thread-122759-1-1.html
 成长值: 34725

1万

主题

2万

帖子

77万

积分

音乐掌门人

Rank: 20Rank: 20Rank: 20Rank: 20Rank: 20

积分
772241

名人勋章社区QQ达人分享勋章精华帖达人灌水勋章

发表于 2015-8-15 03:44:02 | 显示全部楼层
1.jpg
2.jpg
3.jpg
4.jpg
5.jpg
6.jpg
7.jpg
8.jpg
9.jpg
spectrum.jpg



本人发布的资源,有密码的话都是:www.cdbao.net
关于链接失效的说明(度盘好友分享的说明)
https://www.cdbao.net/thread-117499-1-1.html     
紧急通告:115,快传等网盘取消了分享功能礼包码链接全部失效
https://www.cdbao.net/thread-122759-1-1.html

1

主题

5283

帖子

-1210

积分

禁止访问

积分
-1210

社区QQ达人

发表于 2016-8-25 15:08:19 | 显示全部楼层
虽然看起来陌生的专辑,但依然很期待,支持了,谢谢楼主
您需要登录后才可以回帖 登录 | 注册

本版积分规则

快速回复 返回顶部 返回列表