查看: 2889|回复: 134

原抓:周华健《众所周知》黑胶2CD [WAV/CUE/百度]

  [复制链接]

416

主题

783

帖子

4万

积分

天王巨星

Rank: 7Rank: 7Rank: 7

积分
42136

社区QQ达人灌水勋章分享勋章

发表于 2015-7-30 07:07:03 | 显示全部楼层 |阅读模式

注册会员,获得无损资源下载地址,享受高品质音乐。

您需要 登录 才可以下载或查看,没有帐号?注册

x
本帖最后由 微笑面对 于 2015-8-12 13:48 编辑

cover_副本.jpg
back_副本.jpg
CD.jpg

专辑名称:《众所周知》黑胶2CD
专辑艺人:周华健
发行时间:2010年
出版社:深圳音像公司
ISRC:CN-F29-097-11-00


专辑介绍
《众所周知·周华健》周华健一向是好音乐的保证,
他拥有不容置疑的优美歌声,平易近人的个性和对音乐的狂热和执着。
并总是轻易牵引着歌迷走入“周氏情歌”的世界里,
他的歌声所引发的感动与真情,更是众所周知、难以忘怀的回味。

曲目
DISC 1
01 上上签 4:08
02 爱相随 3:43
03 其实不想走 5:12
04 明天我要嫁给你 3:31
05 花心 3:52
06 刀剑如梦 3:11
07 飞越迷雾 4:55
08 亲亲我的宝贝 3:25
09 情非得已 4:04
10 Coffee,Tea or Me我爱你 3:00
11 我喜欢的会有几个 4:42
12 送你回家 3:50
13 女儿歌 3:04
14 怕 4:47
15 我站在全世界的屋顶 3:6

DISC 2 
01 有故事的人 4:6
02 孤枕难眠 4:18
03 小天堂 4:30
04 求婚 4:16
05 风雨无阻 4:37
06 朋友 5:11
07 有没有一首歌让你想起我 4:51
08 我是谁 3:35
09 是不是只要有爱 3:54 
10 棋子 4:39
11 没有你 4:24
12 孩子王 3:40
13 健忘 4:21
14 我愿意去等 3:36 
15 情深为谁 4:07



资源链接:
游客,如果您要查看本帖隐藏内容请回复


点评

有其它论坛的人,来CD包拿了资源,发在其它论坛冒充原抓!有从现在开始,为防止这样的现象发生,,微笑原抓资源.提高资源共享门槛  发表于 2015-7-30 14:14

评分

参与人数 1CD +160 包子 +4 收起 理由
最终之战 + 160 + 4 很棒的帖子,支持

查看全部评分




上一篇:德乾旺姆《聆听西藏 恩情》FLAC+CUE/快传+百度
下一篇:BY2《Cat and Mouse》FLAC/百度

416

主题

783

帖子

4万

积分

天王巨星

Rank: 7Rank: 7Rank: 7

积分
42136

社区QQ达人灌水勋章分享勋章

 楼主| 发表于 2015-7-30 07:07:06 | 显示全部楼层

416

主题

783

帖子

4万

积分

天王巨星

Rank: 7Rank: 7Rank: 7

积分
42136

社区QQ达人灌水勋章分享勋章

 楼主| 发表于 2015-7-30 07:07:04 | 显示全部楼层
本帖最后由 微笑面对 于 2015-7-29 19:13 编辑
Exact Audio Copy V1.0 beta 3 from 29. August 2011

EAC 抓取日志文件从27. 七月 2015, 22:44

周华健 / 众所周知

使用驱动器  :HL-DT-STDVDROM DH18NS40   Adapter: 2  ID: 0

读取模式 : 快速

读取偏移校正:               : 0
读取 Lead-In 和 Lead-Out : 否
用静音填充抓取中丢失偏移的采样       : 是
去除首尾静音块               : 否
在CRC 计算中使用了空样本       : 是
已用接口                  : Win NT 及 2000 本地 Win32 接口

所用输出模式: : 内部 WAV 函数
样本格式    : 44.100 Hz; 16 Bit; 立体声


已抓取 CD 的 TOC

     音轨 |    起始    |    长度    |  起始扇区  |  结束扇区  
    --------------------------------------------
      1 |  0:00.00 |  4:04.74 |      0 |  18373
      2 |  4:04.74 |  3:45.21 |  18374 |  35269
      3 |  7:50.20 |  5:14.53 |  35270 |  58872
      4 | 13:04.73 |  3:33.30 |  58873 |  74877
      5 | 16:38.28 |  3:54.69 |  74878 |  92496
      6 | 20:33.22 |  3:11.15 |  92497 | 106836
      7 | 23:44.37 |  4:57.28 | 106837 | 129139
      8 | 28:41.65 |  3:27.10 | 129140 | 144674
      9 | 32:09.00 |  5:06.50 | 144675 | 167674
     10 | 37:15.50 |  3:02.73 | 167675 | 181397
     11 | 40:18.48 |  4:44.48 | 181398 | 202745
     12 | 45:03.21 |  3:52.13 | 202746 | 220158
     13 | 48:55.34 |  3:04.19 | 220159 | 233977
     14 | 51:59.53 |  4:49.41 | 233978 | 255693
     15 | 56:49.19 |  3:36.15 | 255694 | 271908


范围状态及错误

已选择范围

     文件名 F:\CDImage.wav

     峰值电平 100.0 %
     抓取速度 2.5 X
     复制 CRC 5BEA5BAB
     复制成功

没有错误发生

状态报告结尾


0.png
1.png

416

主题

783

帖子

4万

积分

天王巨星

Rank: 7Rank: 7Rank: 7

积分
42136

社区QQ达人灌水勋章分享勋章

 楼主| 发表于 2015-7-30 07:07:05 | 显示全部楼层
Exact Audio Copy V1.0 beta 3 from 29. August 2011


EAC 抓取日志文件从27. 七月 2015, 23:23


周华健 / 众所周知


使用驱动器  :HL-DT-STDVDROM DH18NS40   Adapter: 2  ID: 0


读取模式 : 快速


读取偏移校正:               : 0
读取 Lead-In 和 Lead-Out : 否
用静音填充抓取中丢失偏移的采样       : 是
去除首尾静音块               : 否
在CRC 计算中使用了空样本       : 是
已用接口                  : Win NT 及 2000 本地 Win32 接口


所用输出模式: : 内部 WAV 函数
样本格式    : 44.100 Hz; 16 Bit; 立体声




已抓取 CD 的 TOC


     音轨 |    起始    |    长度    |  起始扇区  |  结束扇区  
    --------------------------------------------
      1 |  0:00.00 |  4:38.65 |      0 |  20914
      2 |  4:38.65 |  4:20.13 |  20915 |  40427
      3 |  8:59.03 |  3:23.01 |  40428 |  55653
      4 | 12:22.04 |  4:18.23 |  55654 |  75026
      5 | 16:40.27 |  4:37.08 |  75027 |  95809
      6 | 21:17.35 |  5:13.73 |  95810 | 119357
      7 | 26:31.33 |  4:53.26 | 119358 | 141358
      8 | 31:24.59 |  3:35.46 | 141359 | 157529
      9 | 35:00.30 |  3:56.19 | 157530 | 175248
     10 | 38:56.49 |  4:40.73 | 175249 | 196321
     11 | 43:37.47 |  4:26.26 | 196322 | 216297
     12 | 48:03.73 |  3:42.58 | 216298 | 233005
     13 | 51:46.56 |  4:23.09 | 233006 | 252739
     14 | 56:09.65 |  3:38.61 | 252740 | 269150
     15 | 59:48.51 |  4:07.12 | 269151 | 287687




范围状态及错误


已选择范围


     文件名 F:\CDImage.wav


     峰值电平 88.9 %
     抓取速度 2.6 X
     复制 CRC 03CDAA41
     复制成功


没有错误发生


状态报告结尾


==== 记录校验日志 E0D3F1737C627CCC531B3B0A11534859E45C6AB4986E345F0275264980DB3AE0 ====



0

主题

122

帖子

2428

积分

当红偶像

Rank: 4

积分
2428
发表于 2015-7-30 08:01:08 | 显示全部楼层

《众所周知·周华健》周华健一向是好音乐的保证,他拥有不容置疑的优美歌声,平易近人的个性和对音乐的狂热和执着。并总是轻易牵引着歌迷走入“周氏情歌”的世界里,他的歌声所引发的感动与真情,更是众所周知、难以忘怀的回味。


可能命运曾经眷顾无数次,而自己也期待了无数次……华健的声音,将温暖给在逆境里的心。

HD-Mastering黑胶CD是在黑胶CD的基础上进行的一次技术革新和提升,在保证黑胶CD原有的声音品质和聆听效果的同时进行了相应的技术创新。融入了全新的数字概念,将以前单纯的模拟开盘带文件拓展到数字的WAV双轨甚至多轨数字无损音频文件。真正实现无压缩、无信号损失的声音保真度,再以数字音频的格式进行硬盘保存后,直接用于HD-Mastering黑胶CD的母盘制造,最终确保了声音的品质和效果。

DISC 1
01 上上签 4:08
02 爱相随 3:43
03 其实不想走 5:12
04 明天我要嫁给你 3:31
05 花心 3:52
06 刀剑如梦 3:11
07 飞越迷雾 4:55
08 亲亲我的宝贝 3:25
09 情非得已 4:04
10 Coffee,Tea or Me我爱你 3:00
11 我喜欢的会有几个 4:42
12 送你回家 3:50
13 女儿歌 3:04
14 怕 4:47
15 我站在全世界的屋顶 3:6

DISC 2
01 有故事的人 4:6
02 孤枕难眠 4:18
03 小天堂 4:30
04 求婚 4:16
05 风雨无阻 4:37
06 朋友 5:11
07 有没有一首歌让你想起我 4:51
08 我是谁 3:35
09 是不是只要有爱 3:54
10 棋子 4:39
11 没有你 4:24
12 孩子王 3:40
13 健忘 4:21
14 我愿意去等 3:36
15 情深为谁 4:07

周华健:
周华健1960年12月22日出生于香港西营盘的周记米店,由于在家中排行老四,故乳名叫“四牛”。后分别在香港鲁班小学、新法书院就读小学、中学。1978年,18岁的他首次参加香港无线电视举办的业余歌唱大赛,获民歌、流行歌曲合唱组冠军。一年后,他远赴台湾求学,并于1981年考上台湾大学数学系。大学期间,经学长引荐,到士林民歌西餐厅驻唱。1984年,他与林良乐、钱携鑫推出一张音乐合辑《名歌三人行》,创作并发表了第一首单曲《谁曾说过》。 1999年开始,周华健开始进入转型期,其音乐类型也日渐多样化、国际化,除了陆续发行英文专辑《MY OH MY》、国语专辑《NOW 现在》,于大陆、港台、东南亚及北美各地举办多场个人演唱会外,还积极参加各种演艺活动,如担任迪士尼动画电影《泰山》主题曲中文版代言人[2],与陶晶莹连袂主持三十六届金马奖颁奖典礼,参加包括无印良品、罗大佑、黄品源、成龙等艺人的演唱会嘉宾等。期间曾获中国原创音乐流行榜总选颁奖晚会上获年度“全国荣誉歌手大奖”、“年度金曲”-《有没有一首歌会让你想起我》及“十优歌手”奖,香港新城电台国语力颁奖礼“国语力殿堂歌手”及“国语力歌曲”奖-《有没有一首歌会让你想起我》,首届中国唱片金碟奖“最受欢迎港台男歌手”等多个奖项。            

0

主题

54

帖子

-13

积分

恶意回复被扣没分了,积分增加方法见置顶帖

积分
-13

社区QQ达人

发表于 2015-7-30 08:47:23 | 显示全部楼层
支持楼主。经典的声音还是很动听。

0

主题

3

帖子

70

积分

新人会员,请认真回复,若恶意回复,直接封号

Rank: 1

积分
70
发表于 2015-7-30 09:19:16 | 显示全部楼层
多谢楼主分享,喜欢华健!!!!!!!!!!!!!!!

0

主题

492

帖子

392

积分

乐坛新星

Rank: 2

积分
392
发表于 2015-7-30 10:51:58 | 显示全部楼层
谢谢分享!!!非常好,好歌都在里面了!!!

0

主题

502

帖子

477

积分

职业歌手

Rank: 3Rank: 3

积分
477

社区QQ达人

发表于 2015-7-30 12:15:23 | 显示全部楼层
付了钱的。。。。。付了钱的。。。。。

0

主题

159

帖子

185

积分

乐坛新星

Rank: 2

积分
185
发表于 2015-7-30 13:30:03 | 显示全部楼层
有 点 小 贵 啊 , 楼
 成长值: 19665

6557

主题

1万

帖子

8万

积分

音乐掌门人

Rank: 20Rank: 20Rank: 20Rank: 20Rank: 20

积分
84514

名人勋章社区QQ达人分享勋章精华帖达人灌水勋章

发表于 2015-7-30 13:34:17 | 显示全部楼层
经检测,这个资源是真无损。。。。
关于链接失效的说明(度盘+115盘+快传 好友分享的说明)
http://www.cdbao.net/thread-117499-1-1.html     
紧急通告:115,快传等网盘取消了分享功能礼包码链接全部失效
http://www.cdbao.net/thread-122759-1-1.html

0

主题

145

帖子

327

积分

乐坛新星

Rank: 2

积分
327
发表于 2015-7-30 14:07:26 | 显示全部楼层
非常喜欢他的歌是听他的歌成长

0

主题

351

帖子

1315

积分

当红偶像

Rank: 4

积分
1315

社区QQ达人

发表于 2015-7-30 18:29:36 | 显示全部楼层

支持楼主。经典的声音还是很动听。

0

主题

52

帖子

86

积分

新人会员,请认真回复,若恶意回复,直接封号

Rank: 1

积分
86
发表于 2015-7-30 19:03:16 | 显示全部楼层
从小喜欢的歌手 还去听过他的演唱会

0

主题

246

帖子

475

积分

职业歌手

Rank: 3Rank: 3

积分
475

社区QQ达人

发表于 2015-7-30 23:21:19 | 显示全部楼层
仍然支持,虽然我没有这么多......
您需要登录后才可以回帖 登录 | 注册

本版积分规则

快速回复 返回顶部 返回列表