最近看过此主题的会员

查看: 410|回复: 15

[欧美摇滚] 俄旋死厄运:Abyssphere《6CD》2008-2017/FLAC/BD

[复制链接]
 成长值: 29955

1万

主题

2万

帖子

11万

积分

音乐掌门人

Rank: 20Rank: 20Rank: 20Rank: 20Rank: 20

积分
117898

名人勋章社区QQ达人分享勋章精华帖达人灌水勋章

发表于 2018-1-10 16:30:28 | 显示全部楼层 |阅读模式

注册会员,获得无损资源下载地址,享受高品质音乐。

您需要 登录 才可以下载或查看,没有帐号?注册

x
65414_logo.jpg
65414_photo.jpg

Abyssphere

Country of origin:Russia
Location:Saint Petersburg
Status:Active
Formed in:2003
Genre:Melodic Doom/Death Metal
Lyrical themes:Life, Anguish, Desperation
Current label:Endless Desperation Prod.
Years active:2003-present
======================

Abyssphere (2008-2017)

Жанр: Melodic Doom Metal, Dark Metal
Год издания: 2008-2017
Страна: Россия
Аудиокодек: FLAC
Тип рипа: image+.cue
Битрейт аудио: lossless
Продолжительность: 4:21:01



Треклист:2008 - Images and masks

01. О Ней
02. Театр Одного Актера
03. Грядет Новый Век
04. Шкатулка
05. Ангел
06. Мир Стекла
07. В Последний Раз
08. Последняя Искра (Нет Смысла)
Время звучания: 42:59


2010 - Тени и Сны

01. Эпизод
02. Гладиатор
03. Тени и Сны
04. Ад Без Тебя
05. Демон Строк
06. Под Светом Луны
07. Песнь Далеких Земель
08. Исповедь
09. As We Die
Время звучания: 45:10

2013 - Снова и Снова & Again and Again (2CD)
CD 1 - Снова и Снова

01. Снова и Снова
02. Аламут
03. Последний Из Рода
04. Я Хочу Верить
05. Снова и Снова (Инструментал)
06. Аламут (Инструментал)
07. Последний Из Рода (Инструментал)
08. Я Хочу Верить (Инструментал)
Время звучания: 38:17

CD 2 - Again and Again

01. Again and Again
02. Alamut
03. Last Of The Kind
04. I Want To Believe
05. Again and Again (Instrumental)
06. Alamut (Instrumental)
07. Last Of The Kind (Instrumental)
08. I Want To Believe (Instrumental)
Время звучания: 38:16

2017 - На Пути К Забвению (2CD)
CD 1

01. Двери
02. Прозрение
03. Один Во Тьме
04. Carthago Delenda Est
05. Сияние
06. Марафон
07. Пыль
08. К Забвению
Время звучания: 50:57

CD 2

01. Вирус
02. Горизонт
03. Меридиан
04. Конец Долгой Ночи
05. У Врат Забвения (Инструментал)
06. Only For The Weak (In Flames Cover)
07. Черный Океан 2.0 (Bonus Track)
08. Солнце 2.0 (Bonus Track)
Время звучания: 45:20
===============================================















芬兰旋死:Noumena《Myrrys》2017/FLAC/BD
英后激流旋律:The Raven Age《Darkness Will Rise》2017/FLAC/BD

本人发布的资源,有密码的话都是:www.cdbao.net
关于链接失效的说明(度盘好友分享的说明)
https://www.cdbao.net/thread-117499-1-1.html     
紧急通告:115,快传等网盘取消了分享功能礼包码链接全部失效
https://www.cdbao.net/thread-122759-1-1.html
 成长值: 29955

1万

主题

2万

帖子

11万

积分

音乐掌门人

Rank: 20Rank: 20Rank: 20Rank: 20Rank: 20

积分
117898

名人勋章社区QQ达人分享勋章精华帖达人灌水勋章

发表于 2018-1-10 16:30:56 | 显示全部楼层
百度下载(音乐共享精神)


游客,如果您要查看本帖隐藏内容请回复


本人发布的资源,有密码的话都是:www.cdbao.net
关于链接失效的说明(度盘好友分享的说明)
https://www.cdbao.net/thread-117499-1-1.html     
紧急通告:115,快传等网盘取消了分享功能礼包码链接全部失效
https://www.cdbao.net/thread-122759-1-1.html

4

主题

654

帖子

2705

积分

当红偶像

Rank: 4

积分
2705
发表于 2018-1-10 21:55:07 | 显示全部楼层
网易云试听了下,调子还是不错的,俄语的就是CUE往往好出乱码。

4

主题

654

帖子

2705

积分

当红偶像

Rank: 4

积分
2705
发表于 2018-1-10 21:56:10 | 显示全部楼层
网易云试听了下,调子还是不错的,俄语的就是CUE往往好出乱码。

4

主题

654

帖子

2705

积分

当红偶像

Rank: 4

积分
2705
发表于 2018-1-10 22:29:09 | 显示全部楼层
编码都改成UTF-8
2008 - Images and masks
REM GENRE "Doom Metal"
REM DATE 2008
REM DISCID 540A1308
REM COMMENT "ExactAudioCopy v0.99pb5. For rutracker.org"
PERFORMER "Abyssphere"
TITLE "Images and masks"
FILE "Abyssphere - Images and masks.flac" WAVE
  TRACK 01 AUDIO
    TITLE "О Ней"
    PERFORMER "Abyssphere"
    INDEX 01 00:00:00
  TRACK 02 AUDIO
    TITLE "Театр Одного Актера"
    PERFORMER "Abyssphere"
    INDEX 01 07:01:34
  TRACK 03 AUDIO
    TITLE "Грядет Новый Век"
    PERFORMER "Abyssphere"
    INDEX 01 12:30:29
  TRACK 04 AUDIO
    TITLE "Шкатулка"
    PERFORMER "Abyssphere"
    INDEX 01 19:04:51
  TRACK 05 AUDIO
    TITLE "Ангел"
    PERFORMER "Abyssphere"
    INDEX 01 23:01:17
  TRACK 06 AUDIO
    TITLE "Мир Стекла"
    PERFORMER "Abyssphere"
    INDEX 01 28:19:26
  TRACK 07 AUDIO
    TITLE "В Последний Раз"
    PERFORMER "Abyssphere"
    INDEX 01 33:35:35
  TRACK 08 AUDIO
    TITLE "Последняя Искра (Нет смысла)"
    PERFORMER "Abyssphere"
    INDEX 01 39:38:02

4

主题

654

帖子

2705

积分

当红偶像

Rank: 4

积分
2705
发表于 2018-1-10 22:31:57 | 显示全部楼层
2010 - Тени и Сны
REM GENRE "Melodic Doom Metal"
REM DATE 2010
REM DISCID 7A0A9609
REM COMMENT "ExactAudioCopy v0.99pb5. For rutracker.org"
PERFORMER "Abyssphere"
TITLE "Тени и Сны"
FILE "Abyssphere - Тени и Сны.flac" WAVE
  TRACK 01 AUDIO
    TITLE "Эпизод"
    PERFORMER "Abyssphere"
    INDEX 01 00:00:00
  TRACK 02 AUDIO
    TITLE "Гладиатор"
    PERFORMER "Abyssphere"
    INDEX 01 04:33:26
  TRACK 03 AUDIO
    TITLE "Тени и Сны"
    PERFORMER "Abyssphere"
    INDEX 01 09:25:26
  TRACK 04 AUDIO
    TITLE "Ад Без Тебя"
    PERFORMER "Abyssphere"
    INDEX 01 15:02:58
  TRACK 05 AUDIO
    TITLE "Демон Строк"
    PERFORMER "Abyssphere"
    INDEX 01 19:49:31
  TRACK 06 AUDIO
    TITLE "Под Светом Луны"
    PERFORMER "Abyssphere"
    INDEX 01 25:53:04
  TRACK 07 AUDIO
    TITLE "Песнь Далеких Земель"
    PERFORMER "Abyssphere"
    INDEX 01 30:56:74
  TRACK 08 AUDIO
    TITLE "Исповедь"
    PERFORMER "Abyssphere"
    INDEX 01 35:52:36
  TRACK 09 AUDIO
    TITLE "As We Die"
    PERFORMER "Abyssphere"
    INDEX 01 40:23:51

4

主题

654

帖子

2705

积分

当红偶像

Rank: 4

积分
2705
发表于 2018-1-10 22:34:46 | 显示全部楼层
2013 - Снова и Снова & Again and Again (2CD)CD1
REM GENRE "Melodic Doom Metal"
REM DATE 2013
REM DISCID 7408F908
REM COMMENT "ExactAudioCopy v0.99pb5. For rutracker.org"
PERFORMER "Abyssphere"
TITLE "Снова и Снова"
FILE "Abyssphere - Снова и Снова.flac" WAVE
  TRACK 01 AUDIO
    TITLE "Снова и Снова"
    PERFORMER "Abyssphere"
    INDEX 01 00:00:00
  TRACK 02 AUDIO
    TITLE "Аламут"
    PERFORMER "Abyssphere"
    INDEX 01 03:56:35
  TRACK 03 AUDIO
    TITLE "Последний Из Рода"
    PERFORMER "Abyssphere"
    INDEX 01 08:59:03
  TRACK 04 AUDIO
    TITLE "Я Хочу Верить"
    PERFORMER "Abyssphere"
    INDEX 01 13:50:53
  TRACK 05 AUDIO
    TITLE "Снова и Снова (Инструментал)"
    PERFORMER "Abyssphere"
    INDEX 01 19:07:63
  TRACK 06 AUDIO
    TITLE "Аламут (Инструментал)"
    PERFORMER "Abyssphere"
    INDEX 01 23:05:13
  TRACK 07 AUDIO
    TITLE "Последний Из Рода (Инструментал)"
    PERFORMER "Abyssphere"
    INDEX 01 28:07:56
  TRACK 08 AUDIO
    TITLE "Я Хочу Верить (Инструментал)"
    PERFORMER "Abyssphere"
    INDEX 01 33:00:31

4

主题

654

帖子

2705

积分

当红偶像

Rank: 4

积分
2705
发表于 2018-1-10 22:37:41 | 显示全部楼层
2017 - На Пути К Забвению (2CD)CD1
REM GENRE "Melodic Doom Metal, Dark Metal"
REM DATE 2017
REM DISCID 800BF208
REM COMMENT "ExactAudioCopy v1.3. For rutracker.org"
PERFORMER "Abyssphere"
TITLE "На Пути К Забвению"
REM COMPOSER ""
FILE "Abyssphere - На Пути К Забвению (CD1).flac" WAVE
  TRACK 01 AUDIO
    TITLE "Двери"
    PERFORMER "Abyssphere"
    REM COMPOSER ""
    INDEX 01 00:00:00
  TRACK 02 AUDIO
    TITLE "Прозрение"
    PERFORMER "Abyssphere"
    REM COMPOSER ""
    INDEX 01 08:06:10
  TRACK 03 AUDIO
    TITLE "Один Во Тьме"
    PERFORMER "Abyssphere"
    REM COMPOSER ""
    INDEX 01 13:46:13
  TRACK 04 AUDIO
    TITLE "Carthago Delenda Est"
    PERFORMER "Abyssphere"
    REM COMPOSER ""
    INDEX 01 19:32:41
  TRACK 05 AUDIO
    TITLE "Сияние"
    PERFORMER "Abyssphere"
    REM COMPOSER ""
    INDEX 01 25:47:20
  TRACK 06 AUDIO
    TITLE "Марафон"
    PERFORMER "Abyssphere"
    REM COMPOSER ""
    INDEX 01 31:16:09
  TRACK 07 AUDIO
    TITLE "Пыль"
    PERFORMER "Abyssphere"
    REM COMPOSER ""
    INDEX 01 37:46:13
  TRACK 08 AUDIO
    TITLE "К Забвению"
    PERFORMER "Abyssphere"
    REM COMPOSER ""
    INDEX 01 44:18:43

4

主题

654

帖子

2705

积分

当红偶像

Rank: 4

积分
2705
发表于 2018-1-10 22:39:38 | 显示全部楼层
2017 - На Пути К Забвению (2CD)CD2
REM GENRE "Melodic Doom Metal, Dark Metal"
REM DATE 2017
REM DISCID 850AA108
REM COMMENT "ExactAudioCopy v1.3. For rutracker.org"
PERFORMER "Abyssphere"
TITLE "На Пути К Забвению"
REM COMPOSER ""
FILE "Abyssphere - На Пути К Забвению (CD2).flac" WAVE
  TRACK 01 AUDIO
    TITLE "Вирус"
    PERFORMER "Abyssphere"
    REM COMPOSER ""
    INDEX 01 00:00:00
  TRACK 02 AUDIO
    TITLE "Горизонт"
    PERFORMER "Abyssphere"
    REM COMPOSER ""
    INDEX 01 08:06:06
  TRACK 03 AUDIO
    TITLE "Меридиан"
    PERFORMER "Abyssphere"
    REM COMPOSER ""
    INDEX 01 13:47:22
  TRACK 04 AUDIO
    TITLE "Конец Долгой Ночи"
    PERFORMER "Abyssphere"
    REM COMPOSER ""
    INDEX 01 19:25:18
  TRACK 05 AUDIO
    TITLE "У Врат Забвения (Инструментал)"
    PERFORMER "Abyssphere"
    REM COMPOSER ""
    INDEX 01 25:56:55
  TRACK 06 AUDIO
    TITLE "Only For The Weak (In Flames Сover)"
    PERFORMER "Abyssphere"
    REM COMPOSER ""
    INDEX 01 30:55:26
  TRACK 07 AUDIO
    TITLE "Чёрный Океан 2.0 (Bonus Track)"
    PERFORMER "Abyssphere"
    REM COMPOSER ""
    INDEX 01 36:27:66
  TRACK 08 AUDIO
    TITLE "Солнце 2.0 (Bonus Track)"
    PERFORMER "Abyssphere"
    REM COMPOSER ""
    INDEX 01 41:57:34

0

主题

1516

帖子

1739

积分

当红偶像

Rank: 4

积分
1739
发表于 2018-1-13 07:45:44 | 显示全部楼层
谢谢楼主分享,下来学习了

7

主题

517

帖子

2532

积分

当红偶像

Rank: 4

积分
2532

社区QQ达人

发表于 2018-1-13 15:45:09 | 显示全部楼层
thanks for sharing ,nice

0

主题

190

帖子

364

积分

乐坛新星

Rank: 2

积分
364

社区QQ达人

发表于 2018-1-13 23:44:43 | 显示全部楼层
谢谢分享,帽子的璇死厄运很过瘾!

0

主题

59

帖子

36

积分

新人会员,请认真回复,若恶意回复,直接封号

Rank: 1

积分
36
发表于 2018-1-24 13:18:20 | 显示全部楼层
以前杂志上听过,感谢楼主

0

主题

47

帖子

98

积分

新人会员,请认真回复,若恶意回复,直接封号

Rank: 1

积分
98
发表于 2018-2-24 15:25:31 | 显示全部楼层
17年的专辑不错

0

主题

201

帖子

305

积分

乐坛新星

Rank: 2

积分
305
发表于 2018-2-24 20:09:39 | 显示全部楼层
旋律骚气到不行

您需要登录后才可以回帖 登录 | 注册

本版积分规则

支付宝红包
快速回复 返回顶部 返回列表