查看: 610|回复: 4

[华语] 原抓:群星《情迷闽南语》金曲珍藏版10CD/WAV分轨/高速

[复制链接]

679

主题

670

回帖

7万

积分

天王巨星

Rank: 7Rank: 7Rank: 7

积分
70518
发表于 2023-12-26 14:30:45 | 显示全部楼层 |阅读模式

注册会员,获得无损资源下载地址,享受高品质音乐。

您需要 登录 才可以下载或查看,没有账号?注册

x
cover 拷贝.jpg

back 拷贝.jpg

专辑名:情迷闽南语《金曲珍藏篇》10CD黑胶无损
第一碟:
01.浪子回头(男声)
02.大田後生仔
03.心事誰人知
04.薄情郎
05.愛的情火
06.父母的心聲
07.懷念你媽媽
08.含淚跳恰恰
09.酒中花
10.酒醉的滋味
11.坎坷的情路
12.回鄉的我
13.傷心的人
14.女人的心情
15.挽回你的心
16.癡情夢留給傷心的人

第二碟:
01.浪子回頭(女聲)
02.浪流連
03.無情放乎開
04.手中花
05.人生路
06.愛你心痛無愛孤單
07.悲戀的酒杯
08.愛人是行船人
09.感情債上歹還
10.飄浪之女
11.今生情淚
12.看乎開
13.心肝亂糟糟
14.醉相思
15.愛與恨
16.感慨人生


第三碟:
01.愛拼才會贏
02.愛人跟人走
03.美人計
04.浪子的心情
05.流浪到淡水
06.杯中影
07.難忘的初戀情人
08.千錯萬錯
09.命運吉他
10.情深深緣薄薄
11.夢中的情話
12.三生石
13.不能講的秘密
14.歹逗陣
15.看著你想著伊
16.身騎白馬

第四碟:
01.傷心酒店
02.愛情騙子我問你
03.免失志
04.燒酒話
05.出頭天
06.拼出頭
07.愛情一陣風
08.好膽你就來
09.等愛的女人
10.愛越深傷越深
11.愛情這么冷
12.愛人啊恰恰
13.愛情探戈
14.男性的本領
15.浪子情
16.世界第一等

第五碟:
01.舞女
02.愛情恰恰
03.惜別的海岸
04.愛情騙子
05.等待你一生
06.情深似海
07.用情
08.愛的堅持
09.海海人生
10.愛你一千一萬年
11.初戀
12.錯愛
13.成功的條件
14.一定要成功
15.用心愛過的人
16.再會啦!心愛的無緣的人

第六碟:
01.車站
02.愛到才知痛
03.啊郎
04.落花淚
05.一杯美酒
06.雨水我問你
07.無聊的愛情
08.月娘啊,你聽我講
09.再會無緣的情人
10.聲聲叫著你
11.你的愛無我是份
12.惦在你身邊
13.男子漢的愛
14.我問天
15.心愛走天涯
16.講什麽山盟海誓

第七碟:
01.舞女淚
02.酒後的心聲
03.一生的愛
04.風飛沙
05.忍
06.多情啊
07.癡情膽
08.行棋
09.感情放一邊
10.查某人的心
11.花啊花
12.黃昏的故鄉
13.今生今世
14.再生緣
15.月夜愁
16.酒干淌賣無

第八碟:
01.金包銀
02.歡喜就好
03.我無醉是你茫
04.我愛你
05.天地問相思
06.雙人枕頭
07.人在江湖
08.平凡甲平安
09.一段情一場夢
10.今生只爲你
11.只有來認命
12.愛無後悔
13.醉情歌
14.忘不了
15.褪色的戀情
16.勇敢三姐妹

第九碟:
01.酒國英雄
02.美麗的錯誤
03.愛你愛到死
04.離別酒杯
05.賣醉
06.故鄉
07.紙甲筆
08.紅線
09.蝴蝶夢
10.夢中的玫瑰
11.浮沉的兄弟
12.家后
13.堅持
14.送行
15.無字的情批
16.一生只有你

第十碟:
01.迷魂香
02.男人情女人心
03.酒場情歌
04.今生最愛
05.酒是舞伴你是生命
06.等無人
07.恩情
08.雪中紅
09.情海波浪
10.破鏡重圓
11.千年萬年
12.我的選擇猶原是你
13.遠走高飛
14.不甘你酷
15.愛你的勇氣
16.愛甲無怨恨


游客,如果您要查看本帖隐藏内容请回复




游客,如果您要查看本帖隐藏内容请回复

(访问密码: 3658)





评分

参与人数 1CD +400 收起 理由
最终之战 + 400

查看全部评分





原抓:俄黑金 Культура Курения《9CD》FLAC/BD
原抓:英旋律黑Spider God《The Killing Room》2023/FLAC/BD
所有资源均来自网络,仅供试听,严禁用于商业用途,下载后请于24小时后删除。如若链接侵权请联系删除

1万

主题

1万

回帖

682万

积分

音乐掌门人

Rank: 20Rank: 20Rank: 20Rank: 20Rank: 20

积分
6823039

名人勋章社区QQ达人分享勋章精华帖达人灌水勋章

发表于 2023-12-26 15:19:12 | 显示全部楼层
兄弟,抓轨日志发一下。

点评

Exact Audio Copy V1.3 from 2. September 2016 EAC 抓取日志文件从23. 十二月 2023, 13:09 未知艺术家 / 未知标题 使用驱动器 :ASUS SDRW-08D2S-U Adapter: 1 ID: 1 读取模式 : 快速 组合读写偏移校正  详情 回复 发表于 2023-12-26 22:38
所有资源均来自网络,仅供试听,绝不允许用于商业用途,下载后请于24小时后删除。
关于链接失效的说明(度盘好友分享的说明)
https://www.cdbao.net/thread-117499-1-1.html

679

主题

670

回帖

7万

积分

天王巨星

Rank: 7Rank: 7Rank: 7

积分
70518
 楼主| 发表于 2023-12-26 22:38:03 | 显示全部楼层
最终之战 发表于 2023-12-26 15:19
兄弟,抓轨日志发一下。

Exact Audio Copy V1.3 from 2. September 2016

EAC 抓取日志文件从23. 十二月 2023, 13:09

未知艺术家 / 未知标题

使用驱动器  :ASUS    SDRW-08D2S-U   Adapter: 1  ID: 1

读取模式 : 快速

组合读写偏移校正:             : 0
读取 Lead-In 和 Lead-Out : 否
用静音填充抓取中丢失偏移的采样       : 是
去除首尾静音块               : 否
在CRC 计算中使用了空样本       : 是
已用接口                  : Win NT 及 2000 本地 Win32 接口
间隙处理                  : 没检测到,因此追加到上一曲目

所用输出模式: : 内部 WAV 函数
样本格式    : 44.100 Hz; 16 Bit; 立体声


已抓取 CD 的 TOC

     音轨 |    起始    |    长度    |  起始扇区  |  结束扇区  
    --------------------------------------------
      1 |  0:00.00 |  4:21.28 |      0 |  19602
      2 |  4:21.28 |  3:03.74 |  19603 |  33401
      3 |  7:25.27 |  4:12.46 |  33402 |  52347
      4 | 11:37.73 |  3:07.56 |  52348 |  66428
      5 | 14:45.54 |  4:34.31 |  66429 |  87009
      6 | 19:20.10 |  5:28.07 |  87010 | 111616
      7 | 24:48.17 |  4:33.34 | 111617 | 132125
      8 | 29:21.51 |  3:26.44 | 132126 | 147619
      9 | 32:48.20 |  4:37.65 | 147620 | 168459
     10 | 37:26.10 |  3:43.51 | 168460 | 185235
     11 | 41:09.61 |  4:11.00 | 185236 | 204060
     12 | 45:20.61 |  3:54.71 | 204061 | 221681
     13 | 49:15.57 |  4:22.09 | 221682 | 241340
     14 | 53:37.66 |  3:22.70 | 241341 | 256560
     15 | 57:00.61 |  4:23.12 | 256561 | 276297
     16 | 61:23.73 |  3:54.38 | 276298 | 293885


音轨  1

     文件名 G:\电音小子原抓\01 音轨01.wav

     峰值电平 96.6 %
     抓取速度 2.9 X
     测试 CRC 06CBFD17
     复制 CRC 06CBFD17
     复制成功

音轨  2

     文件名 G:\电音小子原抓\02 音轨02.wav

     峰值电平 59.2 %
     抓取速度 2.8 X
     测试 CRC 1B36FAA0
     复制 CRC 1B36FAA0
     复制成功

音轨  3

     文件名 G:\电音小子原抓\03 音轨03.wav

     峰值电平 100.0 %
     抓取速度 3.5 X
     测试 CRC EF74F782
     复制 CRC EF74F782
     复制成功

音轨  4

     文件名 G:\电音小子原抓\04 音轨04.wav

     峰值电平 100.0 %
     抓取速度 3.3 X
     测试 CRC 4C0D563F
     复制 CRC 4C0D563F
     复制成功

音轨  5

     文件名 G:\电音小子原抓\05 音轨05.wav

     峰值电平 65.6 %
     抓取速度 4.1 X
     测试 CRC 95ADDFBE
     复制 CRC 95ADDFBE
     复制成功

音轨  6

     文件名 G:\电音小子原抓\06 音轨06.wav

     峰值电平 77.5 %
     抓取速度 4.6 X
     测试 CRC BDCB3E6B
     复制 CRC BDCB3E6B
     复制成功

音轨  7

     文件名 G:\电音小子原抓\07 音轨07.wav

     峰值电平 72.3 %
     抓取速度 4.7 X
     测试 CRC 3805BA27
     复制 CRC 3805BA27
     复制成功

音轨  8

     文件名 G:\电音小子原抓\08 音轨08.wav

     峰值电平 100.0 %
     抓取速度 4.4 X
     测试 CRC 88337807
     复制 CRC 88337807
     复制成功

音轨  9

     文件名 G:\电音小子原抓\09 音轨09.wav

     峰值电平 85.5 %
     抓取速度 5.1 X
     测试 CRC 7F0960C1
     复制 CRC 7F0960C1
     复制成功

音轨 10

     文件名 G:\电音小子原抓\10 音轨10.wav

     峰值电平 75.3 %
     抓取速度 5.0 X
     测试 CRC 326172BC
     复制 CRC 326172BC
     复制成功

音轨 11

     文件名 G:\电音小子原抓\11 音轨11.wav

     峰值电平 100.0 %
     抓取速度 5.3 X
     测试 CRC 233A61FD
     复制 CRC 233A61FD
     复制成功

音轨 12

     文件名 G:\电音小子原抓\12 音轨12.wav

     峰值电平 100.0 %
     抓取速度 5.3 X
     测试 CRC C577EADA
     复制 CRC C577EADA
     复制成功

音轨 13

     文件名 G:\电音小子原抓\13 音轨13.wav

     峰值电平 69.5 %
     抓取速度 5.8 X
     测试 CRC F12B93CB
     复制 CRC F12B93CB
     复制成功

音轨 14

     文件名 G:\电音小子原抓\14 音轨14.wav

     峰值电平 100.0 %
     抓取速度 5.5 X
     测试 CRC 97E33EAD
     复制 CRC 97E33EAD
     复制成功

音轨 15

     文件名 G:\电音小子原抓\15 音轨15.wav

     峰值电平 62.5 %
     抓取速度 6.1 X
     测试 CRC CAF8BA6D
     复制 CRC CAF8BA6D
     复制成功

音轨 16

     文件名 G:\电音小子原抓\16 音轨16.wav

     峰值电平 90.4 %
     抓取速度 6.0 X
     测试 CRC 1058E55A
     复制 CRC 1058E55A
     复制成功

没有错误发生

状态报告结尾

---- CUETools DB Plugin V2.1.6

[CTDB TOCID: ci8RwcS539gbiJWrVYBF_b.gU5E-] database access error: 基础连接已经关闭: 接收时发生错误。


所有资源均来自网络,仅供试听,严禁用于商业用途,下载后请于24小时后删除。如若链接侵权请联系删除

679

主题

670

回帖

7万

积分

天王巨星

Rank: 7Rank: 7Rank: 7

积分
70518
 楼主| 发表于 2023-12-26 22:38:38 | 显示全部楼层
Exact Audio Copy V1.3 from 2. September 2016

EAC 抓取日志文件从15. 十二月 2023, 15:52

未知艺术家 / 未知标题

使用驱动器  :ASUS    SDRW-08D2S-U   Adapter: 1  ID: 1

读取模式 : 快速

组合读写偏移校正:             : 0
读取 Lead-In 和 Lead-Out : 否
用静音填充抓取中丢失偏移的采样       : 是
去除首尾静音块               : 否
在CRC 计算中使用了空样本       : 是
已用接口                  : Win NT 及 2000 本地 Win32 接口
间隙处理                  : 没检测到,因此追加到上一曲目

所用输出模式: : 内部 WAV 函数
样本格式    : 44.100 Hz; 16 Bit; 立体声


已抓取 CD 的 TOC

     音轨 |    起始    |    长度    |  起始扇区  |  结束扇区  
    --------------------------------------------
      1 |  0:00.00 |  3:55.25 |      0 |  17649
      2 |  3:55.25 |  4:15.28 |  17650 |  36802
      3 |  8:10.53 |  4:32.28 |  36803 |  57230
      4 | 12:43.06 |  4:37.19 |  57231 |  78024
      5 | 17:20.25 |  5:21.36 |  78025 | 102135
      6 | 22:41.61 |  4:29.30 | 102136 | 122340
      7 | 27:11.16 |  3:30.02 | 122341 | 138092
      8 | 30:41.18 |  4:21.05 | 138093 | 157672
      9 | 35:02.23 |  3:35.70 | 157673 | 173867
     10 | 38:38.18 |  3:23.38 | 173868 | 189130
     11 | 42:01.56 |  4:20.33 | 189131 | 208663
     12 | 46:22.14 |  3:31.40 | 208664 | 224528
     13 | 49:53.54 |  4:14.70 | 224529 | 243648
     14 | 54:08.49 |  4:30.35 | 243649 | 263933
     15 | 58:39.09 |  3:42.32 | 263934 | 280615
     16 | 62:21.41 |  4:19.31 | 280616 | 300071


音轨  1

     文件名 G:\电音小子原抓\01 音轨01.wav

     峰值电平 99.6 %
     抓取速度 2.8 X
     测试 CRC 363502B8
     复制 CRC 363502B8
     复制成功

音轨  2

     文件名 G:\电音小子原抓\02 音轨02.wav

     峰值电平 70.3 %
     抓取速度 3.2 X
     测试 CRC 6575FBD6
     复制 CRC 6575FBD6
     复制成功

音轨  3

     文件名 G:\电音小子原抓\03 音轨03.wav

     峰值电平 83.0 %
     抓取速度 3.6 X
     测试 CRC 85CD9F85
     复制 CRC 85CD9F85
     复制成功

音轨  4

     文件名 G:\电音小子原抓\04 音轨04.wav

     峰值电平 87.7 %
     抓取速度 4.0 X
     测试 CRC 99C4BF26
     复制 CRC 99C4BF26
     复制成功

音轨  5

     文件名 G:\电音小子原抓\05 音轨05.wav

     峰值电平 100.0 %
     抓取速度 4.5 X
     测试 CRC CF56A915
     复制 CRC CF56A915
     复制成功

音轨  6

     文件名 G:\电音小子原抓\06 音轨06.wav

     峰值电平 94.6 %
     抓取速度 4.5 X
     测试 CRC 2D85ACAA
     复制 CRC 2D85ACAA
     复制成功

音轨  7

     文件名 G:\电音小子原抓\07 音轨07.wav

     峰值电平 95.3 %
     抓取速度 4.4 X
     测试 CRC E8682FC0
     复制 CRC E8682FC0
     复制成功

音轨  8

     文件名 G:\电音小子原抓\08 音轨08.wav

     峰值电平 100.0 %
     抓取速度 4.9 X
     测试 CRC B1524187
     复制 CRC B1524187
     复制成功

音轨  9

     文件名 G:\电音小子原抓\09 音轨09.wav

     峰值电平 100.0 %
     抓取速度 4.8 X
     测试 CRC 4FC30B40
     复制 CRC 4FC30B40
     复制成功

音轨 10

     文件名 G:\电音小子原抓\10 音轨10.wav

     峰值电平 100.0 %
     抓取速度 4.9 X
     测试 CRC 568BC5CB
     复制 CRC 568BC5CB
     复制成功

音轨 11

     文件名 G:\电音小子原抓\11 音轨11.wav

     峰值电平 93.9 %
     抓取速度 5.5 X
     测试 CRC 8CC34527
     复制 CRC 8CC34527
     复制成功

音轨 12

     文件名 G:\电音小子原抓\12 音轨12.wav

     峰值电平 95.8 %
     抓取速度 5.3 X
     测试 CRC 9A132135
     复制 CRC 9A132135
     复制成功

音轨 13

     文件名 G:\电音小子原抓\13 音轨13.wav

     峰值电平 94.1 %
     抓取速度 5.8 X
     测试 CRC D7CF656C
     复制 CRC D7CF656C
     复制成功

音轨 14

     文件名 G:\电音小子原抓\14 音轨14.wav

     峰值电平 85.0 %
     抓取速度 6.1 X
     测试 CRC 37AAEE77
     复制 CRC 37AAEE77
     复制成功

音轨 15

     文件名 G:\电音小子原抓\15 音轨15.wav

     峰值电平 100.0 %
     抓取速度 5.9 X
     测试 CRC 3D463161
     复制 CRC 3D463161
     复制成功

音轨 16

     文件名 G:\电音小子原抓\16 音轨16.wav

     峰值电平 85.8 %
     抓取速度 6.4 X
     测试 CRC 3503B79E
     复制 CRC 3503B79E
     复制成功

没有错误发生

状态报告结尾

---- CUETools DB Plugin V2.1.6

[CTDB TOCID: hD6M8lEp_kfoo6gp0Qdj6LA9QjQ-] database access error: 基础连接已经关闭: 接收时发生错误。

评分

参与人数 1CD +400 收起 理由
最终之战 + 400

查看全部评分

所有资源均来自网络,仅供试听,严禁用于商业用途,下载后请于24小时后删除。如若链接侵权请联系删除

542

主题

5552

回帖

11万

积分

乐坛教父

Rank: 8Rank: 8

积分
112599
发表于 2023-12-27 11:47:11 | 显示全部楼层
闽南语的歌听起来还挺上头的
您需要登录后才可以回帖 登录 | 注册

本版积分规则

快速回复 返回顶部 返回列表