查看: 206|回复: 3

[欧美] Ginger Devil原抓:Testament《Titans Of Creation》2020豪华日版/FLAC/CT

[复制链接]
 成长值: 38010

1万

主题

2万

帖子

49万

积分

音乐掌门人

Rank: 20Rank: 20Rank: 20Rank: 20Rank: 20

积分
490551

名人勋章社区QQ达人分享勋章精华帖达人灌水勋章

发表于 2020-4-25 07:59:52 | 显示全部楼层 |阅读模式

注册会员,获得无损资源下载地址,享受高品质音乐。

您需要 登录 才可以下载或查看,没有帐号?注册

x
Cover.jpg
TESTAMENT - TITANS OF CREATION (Deluxe edition)

风格: Thrash Metal
介质: CD
出版国家: Japan
出版时间: 2020
公司: Nuclear Blast / WarD Records
出版号: GQCS-90878~9
国家: U.S.A.
格式: FLAC (*.flac)
附件: image+.cue
时长: 58:40 +77:36


CD-1
"Titans Of Creation"
Треклист:
1. Children Of The Next Level
2. WWIII
3. Dream Deceiver
4. Night Of The Witch
5. City Of Angels
6. Ishtar's Gate
7. Symptoms
8. False Prophet
9. The Healers
10. Code Of Hammurabi
11. Curse Of Osiris
12. Catacombs


CD-2
"Live In Tokyo 2017.2.20 @ Shibuya TSUTAYA O-EAST"
Треклист:
1. Brotherhood Of The Snake
2. Rise Up
3. Disciples Of The Watch
4. The Pale King
5. Practice What You Preach
6. The New Order
7. More Than Meets The Eye
8. Dark Roots Of Earth
9. Stronghold
10. Into The Pit
11. Over The Wall
12. D.N.R. (Do Not Resuscitate)
13. 3 Days In Darkness
14. The Formation Of Damnation
15. Alone In The Dark




原抓:黃衛明《提琴情詩》1995/WAV+LOG/BD
原抓:METALLICA《GARAGE INC.》德国首版 1998/WAV/整轨/百度

本人发布的资源,有密码的话都是:www.cdbao.net
关于链接失效的说明(度盘好友分享的说明)
https://www.cdbao.net/thread-117499-1-1.html     
紧急通告:115,快传等网盘取消了分享功能礼包码链接全部失效
https://www.cdbao.net/thread-122759-1-1.html
 成长值: 38010

1万

主题

2万

帖子

49万

积分

音乐掌门人

Rank: 20Rank: 20Rank: 20Rank: 20Rank: 20

积分
490551

名人勋章社区QQ达人分享勋章精华帖达人灌水勋章

发表于 2020-4-25 08:02:38 | 显示全部楼层

2020.jpg
Back.jpg
Booklet 1-20.jpg
Booklet 2-3.jpg
Booklet 4-5.jpg
Booklet 6-7.jpg
Booklet 8-9.jpg
Booklet 10-11.jpg
Booklet 12-13.jpg
Booklet 14-15.jpg
Booklet 16-17.jpg
Booklet 18-19.jpg
CD-1.jpg
CD-2.jpg
Front.jpg
Inlay.jpg
J-booklet 1-20.jpg
J-booklet 2-3.jpg
J-booklet 4-5.jpg
J-booklet 6-7.jpg
J-booklet 8-9.jpg
J-booklet 10-11.jpg
J-booklet 12-13.jpg
J-booklet 14-15.jpg
J-booklet 16-17.jpg
J-booklet 18-19.jpg
Matrix 1.jpg
Matrix 2.jpg
OBI.jpg

本人发布的资源,有密码的话都是:www.cdbao.net
关于链接失效的说明(度盘好友分享的说明)
https://www.cdbao.net/thread-117499-1-1.html     
紧急通告:115,快传等网盘取消了分享功能礼包码链接全部失效
https://www.cdbao.net/thread-122759-1-1.html
 成长值: 38010

1万

主题

2万

帖子

49万

积分

音乐掌门人

Rank: 20Rank: 20Rank: 20Rank: 20Rank: 20

积分
490551

名人勋章社区QQ达人分享勋章精华帖达人灌水勋章

发表于 2020-4-25 08:04:14 | 显示全部楼层
Exact Audio Copy V1.5 from 20. February 2020

EAC extraction logfile from 23. April 2020, 6:11

Testament / Titans Of Creation (GQCS-90878~9)

Used drive  : ASUS    DRW-24B1ST   Adapter: 1  ID: 1

Read mode               : Secure
Utilize accurate stream : Yes
Defeat audio cache      : Yes
Make use of C2 pointers : No

Read offset correction                      : 6
Overread into Lead-In and Lead-Out          : No
Fill up missing offset samples with silence : Yes
Delete leading and trailing silent blocks   : No
Null samples used in CRC calculations       : Yes
Used interface                              : Native Win32 interface for Win NT & 2000

Used output format              : User Defined Encoder
Selected bitrate                : 1024 kBit/s
Quality                         : High
Add ID3 tag                     : No
Command line compressor         : C:\Program Files (x86)\Exact Audio Copy\Flac\flac.exe
Additional command line options : -V -8 -T "Genre=%genre%" -T "Artist=%artist%" -T "Title=%title%" -T "Album=%albumtitle%" -T "Date=%year%" -T "Tracknumber=%tracknr%" -T "Comment=%comment%" %source%

TOC of the extracted CD

     Track |   Start  |  Length  | Start sector | End sector
    ---------------------------------------------------------
        1  |  0:00.00 |  6:13.70 |         0    |    28044
        2  |  6:13.70 |  4:48.22 |     28045    |    49666
        3  | 11:02.17 |  4:58.64 |     49667    |    72080
        4  | 16:01.06 |  6:32.05 |     72081    |   101485
        5  | 22:33.11 |  6:43.20 |    101486    |   131730
        6  | 29:16.31 |  5:09.21 |    131731    |   154926
        7  | 34:25.52 |  4:37.58 |    154927    |   175759
        8  | 39:03.35 |  4:54.40 |    175760    |   197849
        9  | 43:58.00 |  4:23.27 |    197850    |   217601
       10  | 48:21.27 |  4:52.01 |    217602    |   239502
       11  | 53:13.28 |  3:24.62 |    239503    |   254864
       12  | 56:38.15 |  2:01.33 |    254865    |   263972

Range status and errors

Selected range

     Filename F:\Ginger Devil\Testament - Titans Of Creation (2020)\CD-1 - Titans Of Creation\Testament - Titans Of Creation (GQCS-90878~9).wav

     Peak level 100.0 %
     Extraction speed 5.8 X
     Range quality 100.0 %
     Test CRC 3E49042D
     Copy CRC 3E49042D
     Copy OK

No errors occurred

AccurateRip summary

Track  1  not present in database
Track  2  not present in database
Track  3  not present in database
Track  4  not present in database
Track  5  not present in database
Track  6  not present in database
Track  7  not present in database
Track  8  not present in database
Track  9  not present in database
Track 10  not present in database
Track 11  not present in database
Track 12  not present in database

None of the tracks are present in the AccurateRip database

End of status report

---- CUETools DB Plugin V2.1.6

[CTDB TOCID: qoMmvznAT7DlCCdPd92rnJ3QsRY-] found
Submit result: qoMmvznAT7DlCCdPd92rnJ3QsRY- has been confirmed
Track | CTDB Status
  1   | (79/82) Accurately ripped
  2   | (80/82) Accurately ripped
  3   | (80/82) Accurately ripped
  4   | (80/82) Accurately ripped
  5   | (80/82) Accurately ripped
  6   | (80/82) Accurately ripped
  7   | (80/82) Accurately ripped
  8   | (80/82) Accurately ripped
  9   | (80/82) Accurately ripped
10   | (80/82) Accurately ripped
11   | (80/82) Accurately ripped
12   | (79/82) Accurately ripped

==== Log checksum 4F9180D188EF70784CFA5B0D78810E8C097EFAF6C44D92025CD7995D5207FF26 ====


Exact Audio Copy V1.5 from 20. February 2020

EAC extraction logfile from 23. April 2020, 23:03

Testament / Live In Tokyo 2017.2.20

Used drive  : ASUS    DRW-24B1ST   Adapter: 1  ID: 1

Read mode               : Secure
Utilize accurate stream : Yes
Defeat audio cache      : Yes
Make use of C2 pointers : No

Read offset correction                      : 6
Overread into Lead-In and Lead-Out          : No
Fill up missing offset samples with silence : Yes
Delete leading and trailing silent blocks   : No
Null samples used in CRC calculations       : Yes
Used interface                              : Native Win32 interface for Win NT & 2000

Used output format              : User Defined Encoder
Selected bitrate                : 1024 kBit/s
Quality                         : High
Add ID3 tag                     : No
Command line compressor         : C:\Program Files (x86)\Exact Audio Copy\Flac\flac.exe
Additional command line options : -V -8 -T "Genre=%genre%" -T "Artist=%artist%" -T "Title=%title%" -T "Album=%albumtitle%" -T "Date=%year%" -T "Tracknumber=%tracknr%" -T "Comment=%comment%" %source%

TOC of the extracted CD

     Track |   Start  |  Length  | Start sector | End sector
    ---------------------------------------------------------
        1  |  0:00.00 |  4:26.60 |         0    |    20009
        2  |  4:26.60 |  4:35.14 |     20010    |    40648
        3  |  9:01.74 |  4:46.54 |     40649    |    62152
        4  | 13:48.53 |  5:00.30 |     62153    |    84682
        5  | 18:49.08 |  5:06.27 |     84683    |   107659
        6  | 23:55.35 |  4:36.62 |    107660    |   128421
        7  | 28:32.22 |  4:28.72 |    128422    |   148593
        8  | 33:01.19 |  5:33.38 |    148594    |   173606
        9  | 38:34.57 |  4:14.68 |    173607    |   192724
       10  | 42:49.50 |  3:21.52 |    192725    |   207851
       11  | 46:11.27 |  5:18.54 |    207852    |   231755
       12  | 51:30.06 |  4:19.19 |    231756    |   251199
       13  | 55:49.25 |  6:01.03 |    251200    |   278277
       14  | 61:50.28 |  8:00.24 |    278278    |   314301
       15  | 69:50.52 |  7:45.33 |    314302    |   349209

Range status and errors

Selected range

     Filename F:\Ginger Devil\Testament - Titans Of Creation (2020)\CD-2 - Live In Tokyo 2017.2.20 @ Shibuya Tsutaya O-East\Testament - Live In Tokyo 2017.2.20.wav

     Peak level 100.0 %
     Extraction speed 6.4 X
     Range quality 100.0 %
     Test CRC BB8A47A6
     Copy CRC BB8A47A6
     Copy OK

No errors occurred

AccurateRip summary

Track  1  not present in database
Track  2  not present in database
Track  3  not present in database
Track  4  not present in database
Track  5  not present in database
Track  6  not present in database
Track  7  not present in database
Track  8  not present in database
Track  9  not present in database
Track 10  not present in database
Track 11  not present in database
Track 12  not present in database
Track 13  not present in database
Track 14  not present in database
Track 15  not present in database

None of the tracks are present in the AccurateRip database

End of status report

---- CUETools DB Plugin V2.1.6

[CTDB TOCID: PJSlZ2DBgdHcaSk3EV0Ypb3lBHo-] found
Submit result: PJSlZ2DBgdHcaSk3EV0Ypb3lBHo- has been confirmed
Track | CTDB Status
  1   | (12/12) Accurately ripped
  2   | (12/12) Accurately ripped
  3   | (12/12) Accurately ripped
  4   | (12/12) Accurately ripped
  5   | (12/12) Accurately ripped
  6   | (12/12) Accurately ripped
  7   | (12/12) Accurately ripped
  8   | (12/12) Accurately ripped
  9   | (12/12) Accurately ripped
10   | (12/12) Accurately ripped
11   | (12/12) Accurately ripped
12   | (12/12) Accurately ripped
13   | (12/12) Accurately ripped
14   | (12/12) Accurately ripped
15   | (12/12) Accurately ripped

==== Log checksum 7C1731906CFC15AE1220C286825E5DAB39B156E21232AB0885E902056B5D2751 ====



本人发布的资源,有密码的话都是:www.cdbao.net
关于链接失效的说明(度盘好友分享的说明)
https://www.cdbao.net/thread-117499-1-1.html     
紧急通告:115,快传等网盘取消了分享功能礼包码链接全部失效
https://www.cdbao.net/thread-122759-1-1.html
 成长值: 38010

1万

主题

2万

帖子

49万

积分

音乐掌门人

Rank: 20Rank: 20Rank: 20Rank: 20Rank: 20

积分
490551

名人勋章社区QQ达人分享勋章精华帖达人灌水勋章

发表于 2020-4-25 08:04:46 | 显示全部楼层
诚通下载:


游客,如果您要查看本帖隐藏内容请回复


本人发布的资源,有密码的话都是:www.cdbao.net
关于链接失效的说明(度盘好友分享的说明)
https://www.cdbao.net/thread-117499-1-1.html     
紧急通告:115,快传等网盘取消了分享功能礼包码链接全部失效
https://www.cdbao.net/thread-122759-1-1.html
您需要登录后才可以回帖 登录 | 注册

本版积分规则

快速回复 返回顶部 返回列表