最近看过此主题的会员

查看: 377|回复: 25

美蓝调摇滚:Albert Cummings《Believe》(2020)/FLAC/24bit/BD

[复制链接]

33

主题

259

帖子

4921

积分

人气天王

Rank: 5Rank: 5

积分
4921

灌水勋章

发表于 2020-3-16 20:08:54 | 显示全部楼层 |阅读模式

注册会员,获得无损资源下载地址,享受高品质音乐。

您需要 登录 才可以下载或查看,没有帐号?注册

x
本帖最后由 WoW汪 于 2020-3-16 20:22 编辑
folder.jpg
Albert Cummings • Believe(2020)

Album Info:
Формат записи | Источник записи: [TR24][OF]
Наличие водяных знаков: Нет
Год издания релиза: 2020
Жанр: Modern Electric Blues
Лейбл: Provogue Records
Продолжительность: 00:43:25
Источник: internet
WEB релиз: ссылка
Контейнер: FLAC (*.flac)
Тип рипа: tracks
Разрядность: 24/44,1
Формат: WAV (flac.ape.wv)
Количество каналов: 2.0
Наличие сканов: front

Tracklist:
◈ 01 - Hold On (00:04:14)
◈ 02 - Do What Mama Says (00:03:02)
◈ 03 - Red Rooster (00:03:55)
◈ 04 - Queen Of Mean (00:04:17)
◈ 05 - Crazy Love (00:03:30)
◈ 06 - Get Out Of Here (00:04:06)
◈ 07 - My Babe (00:03:23)
◈ 08 - It's All Good (00:03:49)
◈ 09 - Going My Way (00:04:48)
◈ 10 - Call Me Crazy (00:04:19)
◈ 11 - Me And My Guitar (00:03:56)

评分

参与人数 1CD +100 收起 理由
最终之战 + 100

查看全部评分





美版 VA - NOW That's What I Call Music! vol. 73 [US] (2020) FLAC/分轨/...
原抓:Michelle Branch 《Hotel Paper》引进版2003/WAV/整轨/CT

0

主题

18

帖子

72

积分

新人会员,请认真回复,若恶意回复,直接封号

Rank: 1

积分
72
发表于 4 天前 来自手机 | 显示全部楼层
Blues rock, My favorite genre.cant wait to hearvit

33

主题

259

帖子

4921

积分

人气天王

Rank: 5Rank: 5

积分
4921

灌水勋章

 楼主| 发表于 2020-3-16 20:10:32 | 显示全部楼层
foobar2000 1.4.2 / Dynamic Range Meter 1.1.1
log date: 2020-02-13 19:47:12
--------------------------------------------------------------------------------
Analyzed: Albert Cummings / Believe
--------------------------------------------------------------------------------
DR         Peak         RMS     Duration Track
--------------------------------------------------------------------------------
DR8        0.00 dB    -9.00 dB      4:15 01-Hold On
DR7        0.00 dB    -8.47 dB      3:02 02-Do What Mama Says
DR9        0.00 dB    -9.93 dB      3:56 03-Red Rooster
DR8        0.00 dB    -9.16 dB      4:18 04-Queen Of Mean
DR8        0.00 dB   -11.28 dB      3:30 05-Crazy Love
DR8        0.00 dB    -9.69 dB      4:07 06-Get Out Of Here
DR8        0.00 dB    -9.73 dB      3:23 07-My Babe
DR7        0.00 dB    -8.40 dB      3:50 08-It's All Good
DR8        0.00 dB    -9.54 dB      4:48 09-Going My Way
DR6        0.00 dB    -7.28 dB      4:20 10-Call Me Crazy
DR7        0.00 dB    -8.80 dB      3:56 11-Me And My Guitar
--------------------------------------------------------------------------------
Number of tracks:  11
Official DR value: DR8
Samplerate:        44100 Hz
Channels:          2
Bits per sample:   24
Bitrate:           1605 kbps
Codec:             FLAC
================================================================================

33

主题

259

帖子

4921

积分

人气天王

Rank: 5Rank: 5

积分
4921

灌水勋章

 楼主| 发表于 2020-3-16 20:22:34 | 显示全部楼层
本帖最后由 WoW汪 于 2020-3-16 20:47 编辑

游客,如果您要查看本帖隐藏内容请回复


33

主题

259

帖子

4921

积分

人气天王

Rank: 5Rank: 5

积分
4921

灌水勋章

 楼主| 发表于 2020-3-16 20:25:16 | 显示全部楼层

点评

解压文件的时候要密码呀,兄弟。密码多少呀?  详情 回复 发表于 2020-3-20 10:20
integral

2

主题

1002

帖子

1137

积分

职业歌手

Rank: 3Rank: 3

积分
1137
发表于 2020-3-16 21:43:19 | 显示全部楼层
感謝分享搖滾樂

0

主题

1094

帖子

391

积分

乐坛新星

Rank: 2

积分
391

社区QQ达人

发表于 2020-3-17 08:11:10 | 显示全部楼层
听听蓝调~~~~~~~~~~~~~~~~~~~~

0

主题

623

帖子

327

积分

乐坛新星

Rank: 2

积分
327
发表于 2020-3-17 08:18:36 | 显示全部楼层
谢谢分享,下一个,听一听

0

主题

462

帖子

418

积分

乐坛新星

Rank: 2

积分
418
发表于 2020-3-17 08:49:02 | 显示全部楼层
确实不错哦,一定要得支持支持,谢谢分享!

0

主题

257

帖子

572

积分

职业歌手

Rank: 3Rank: 3

积分
572
发表于 2020-3-17 08:52:21 | 显示全部楼层
蓝调吉他,很棒。感谢分享

0

主题

569

帖子

111

积分

新人会员,请认真回复,若恶意回复,直接封号

Rank: 1

积分
111

社区QQ达人

发表于 2020-3-17 10:46:37 | 显示全部楼层
谢谢分享好的音乐

0

主题

406

帖子

191

积分

乐坛新星

Rank: 2

积分
191
发表于 2020-3-17 17:48:19 | 显示全部楼层
多谢分享!下来听听蓝调!!

0

主题

2077

帖子

3370

积分

当红偶像

Rank: 4

积分
3370
发表于 2020-3-17 21:10:32 | 显示全部楼层
这一类非常好啊

24

主题

559

帖子

1万

积分

人气天王

Rank: 5Rank: 5

积分
10196
发表于 2020-3-17 23:08:15 | 显示全部楼层

多谢分享!去品品看

0

主题

92

帖子

409

积分

乐坛新星

Rank: 2

积分
409
发表于 2020-3-18 09:22:58 | 显示全部楼层
布鲁斯摇滚,最原始的最有味道

0

主题

232

帖子

229

积分

乐坛新星

Rank: 2

积分
229
发表于 2020-3-18 13:14:38 | 显示全部楼层
喜欢这类歌曲。。。。
您需要登录后才可以回帖 登录 | 注册

本版积分规则

快速回复 返回顶部 返回列表