最近看过此主题的会员

查看: 3412|回复: 351

Sony出品古典音乐大合集30CD/FLAC/8.57G/百度盘

  [复制链接]

5

主题

190

帖子

3563

积分

当红偶像

Rank: 4

积分
3563

社区QQ达人

发表于 2020-2-4 22:09:32 | 显示全部楼层 |阅读模式

注册会员,获得无损资源下载地址,享受高品质音乐。

您需要 登录 才可以下载或查看,没有帐号?注册

x
本帖最后由 xyxzy 于 2020-3-2 13:15 编辑

●专辑名:Sony The Classical Collection (30CD)
●艺术家:Various Artists
●唱片公司:Sony
●音乐风格: 古典
●CD 编号: 88697334532
●版本:德版,欧洲压片
●发行时间::2008
●资源格式:1.2倍低速EAC原抓,flac+cue


专辑简介:

这套Sony出品的30CD古典音乐大合集涵盖了几乎所有经典的入门曲目,从最早以巴赫为代表的巴洛克时期,到以海顿、莫扎特、贝多芬和勃拉姆斯为代表的古典乐派、再到以舒伯特,舒曼,门德尔松,德沃夏克,柴可夫斯基,肖邦等人为代表的浪漫乐派和民族乐派甚至现代乐派的作品,应有尽有,精彩纷呈,名家名团,倾情演绎,值得欣赏,耐人寻味。

全集按照作曲家们的出生年代进行升序编排,有的作曲家选集了其最主要的个别作品,而乐圣贝多芬和乐神莫扎特的作品则占了比较大的比重,很符合古典入门朋友的口味。这套合集也是把我引入神圣的古典音乐殿堂的最美毒药,早晨伴随着施特劳斯家族的欢快旋律缓缓起床,午饭间贝交激情响起,慵懒的午后听几曲钢奏小协,缤纷的夜晚再来点水上音乐,最后在肖邦夜曲OP.9下安然入睡,这样的日子过的何其舒心闲适,真想永远只沉浸在那么美丽的世界里,不知归路……



专辑曲目:
CD1 Bach Brandenburg Concertos 1-3
CD2 Bach Brandenburg Concertos 4-6
CD3 Handel Water Music and Royal Fireworks Music
CD4 Vivaldi The Four Seasons
CD5 Haydn London Symphonies No.101 & 102
CD6 Mozart Symphonies I
CD7 Mozart Symphonies II
CD8 Mozart Piano Concertos No.20 & 21
CD9 Mozart Clarinet Concerto & Quintet
CD10 Mozart Requiem & Exsultate Jubilate
CD11 Beethoven Symphonies No.4 & 5 and Fidelio Ouverture
CD12 Beethoven Symphonies No.1 & 6 ‘Pastorale‘
CD13 Beethoven Symphonie No.9 and Egmont Ouverture
CD14 Beethoven Piano Concertos No.4 & 5 ‘Emperor‘
CD15 Beethoven Piano Sonatas No.14,21,23,8
CD16 Schubert Symphony No.8 ‘Unfinished‘ & Rosamunde
CD17 Mendelssohn Violin Concerto,Symphony No.4
CD18 Schumann Symphonies No.3 ‘Rheinish‘& No.4 and Manfred Ouverture
CD19 Chopin Pianoworks
CD20 Brahms Symphony No.4
CD21 Brahms Violin Concerto & Concerto for Violin and Cello
CD22 Strauss Works
CD23 Mussorgsky Songs and dances of Death & Pictures at an Exhibition
CD24 Tchaikovsky Symphony No.6 ‘Pathetique‘ & Marche Slave & Suite No.4
CD25 Tchaikovsky Piano Concerto No.1 & Violin Concerto
CD26 Mahler Symphonies No.1 ‘Titan‘ & 10.Adagio
CD27 Mahler Symphony No.5
CD28 Debussy Orchestral Works
CD29 Ravel Bolero,La Valse,Rapsodie Espagnole etc
CD30 Gershwin Rapsody in Blue & An American in Paris


Box.JPG

Set5.JPG

Booklet1.JPG

Booklet2.JPG

CD.JPG

CDs.JPG

Cover.JPG

Set1.JPG

Set2.JPG

Set3.JPG

Set4.JPG

Exact Audio Copy V1.0 beta 2 from 29. April 2011
EAC extraction logfile from 9. July 2011, 19:53
Gustav Leonhardt / Bach:Brandenburg Concerto 1-3
Used drive  : COMPAQ  CD-224E   Adapter: 1  ID: 0
Read mode               : Secure
Utilize accurate stream : Yes
Defeat audio cache      : Yes
Make use of C2 pointers : No
Read offset correction                      : 684
Overread into Lead-In and Lead-Out          : No
Fill up missing offset samples with silence : Yes
Delete leading and trailing silent blocks   : No
Null samples used in CRC calculations       : No
Used interface                              : Native Win32 interface for Win NT & 2000
Used output format              : User Defined Encoder
Selected bitrate                : 768 kBit/s
Quality                         : High
Add ID3 tag                     : No
Command line compressor         : C:\Program Files\Exact Audio Copy\FLAC\FLAC.EXE
Additional command line options : -6 -V -T "ARTIST=%artist%" -T "TITLE=%title%" -T "ALBUM=%albumtitle%" -T "DATE=%year%" -T "TRACKNUMBER=%tracknr%" -T "GENRE=%genre%" -T "COMMENT=%comment%" %hascover%--picture="%coverfile%"%hascover% %source% -o %dest%

TOC of the extracted CD
     Track |   Start  |  Length  | Start sector | End sector
    ---------------------------------------------------------
        1  |  0:00.00 |  4:25.15 |         0    |    19889   
        2  |  4:25.15 |  3:45.52 |     19890    |    36816   
        3  |  8:10.67 |  4:42.10 |     36817    |    57976   
        4  | 12:53.02 |  8:54.08 |     57977    |    98034   
        5  | 21:47.10 |  5:24.57 |     98035    |   122391   
        6  | 27:11.67 |  3:36.55 |    122392    |   138646   
        7  | 30:48.47 |  3:11.63 |    138647    |   153034   
        8  | 34:00.35 |  6:07.12 |    153035    |   180571   
        9  | 40:07.47 |  0:19.68 |    180572    |   182064   
       10  | 40:27.40 |  4:28.70 |    182065    |   202234   

Range status and errors
Selected range
     Filename D:\Sony The Classical Collection 30CD\CD1\Gustav Leonhardt - Bach-Brandenburg Concerto 1-3.wav
     Peak level 99.9 %
     Extraction speed 1.2 X
     Range quality 100.0 %
     Copy CRC E19233FE
     Copy OK
No errors occurred

AccurateRip summary

Track  1  cannot be verified as accurate (confidence 9)  [BE824561], AccurateRip returned [03862F59]  (AR v2)
Track  2  cannot be verified as accurate (confidence 9)  [4283818E], AccurateRip returned [99862469]  (AR v2)
Track  3  cannot be verified as accurate (confidence 8)  [28035DEC], AccurateRip returned [2A226BFE]  (AR v2)
Track  4  cannot be verified as accurate (confidence 8)  [9381E834], AccurateRip returned [FC25F215]  (AR v2)
Track  5  cannot be verified as accurate (confidence 9)  [9E88F234], AccurateRip returned [D8C4EF31]  (AR v2)
Track  6  cannot be verified as accurate (confidence 9)  [76941D79], AccurateRip returned [D2F377D5]  (AR v2)
Track  7  cannot be verified as accurate (confidence 9)  [F7D245D5], AccurateRip returned [D551EFC6]  (AR v2)
Track  8  cannot be verified as accurate (confidence 9)  [75EDDE7F], AccurateRip returned [ABC63664]  (AR v2)
Track  9  cannot be verified as accurate (confidence 9)  [81F8F9F8], AccurateRip returned [AFEAC92B]  (AR v2)
Track 10  cannot be verified as accurate (confidence 9)  [DB3E1DCD], AccurateRip returned [1A555232]  (AR v2)

No tracks could be verified as accurate
You may have a different pressing from the one(s) in the database
End of status report


链接:
游客,如果您要查看本帖隐藏内容请回复


评分

参与人数 1CD +400 收起 理由
最终之战 + 400 感谢分享资源,CD包因你而精彩.

查看全部评分





贝多芬《第六交响曲》瓦尔特版本/WAV/BD
Karajan-Official Remastered Edition 自抓大包子来了

0

主题

490

帖子

779

积分

职业歌手

Rank: 3Rank: 3

积分
779
发表于 2020-2-4 22:22:19 | 显示全部楼层
感谢楼主分享,好专辑

0

主题

490

帖子

779

积分

职业歌手

Rank: 3Rank: 3

积分
779
发表于 2020-2-4 22:24:10 | 显示全部楼层
感谢楼主分享,好专辑
 成长值: 38040

1万

主题

2万

帖子

49万

积分

音乐掌门人

Rank: 20Rank: 20Rank: 20Rank: 20Rank: 20

积分
491504

名人勋章社区QQ达人分享勋章精华帖达人灌水勋章

发表于 2020-2-4 22:24:50 | 显示全部楼层
楼主,度盘链接有问题,重新给你整了一下

点评

改了,你看现在可以了不?  详情 回复 发表于 2020-2-4 22:51

本人发布的资源,有密码的话都是:www.cdbao.net
关于链接失效的说明(度盘好友分享的说明)
https://www.cdbao.net/thread-117499-1-1.html     
紧急通告:115,快传等网盘取消了分享功能礼包码链接全部失效
https://www.cdbao.net/thread-122759-1-1.html

2

主题

34

帖子

280

积分

乐坛新星

Rank: 2

积分
280
发表于 2020-2-4 22:24:56 | 显示全部楼层
谢谢!感谢大佬分享

0

主题

63

帖子

219

积分

乐坛新星

Rank: 2

积分
219
发表于 2020-2-4 22:49:16 | 显示全部楼层
非常感谢!应该是入门的佳作

5

主题

190

帖子

3563

积分

当红偶像

Rank: 4

积分
3563

社区QQ达人

 楼主| 发表于 2020-2-4 22:51:18 | 显示全部楼层
最终之战 发表于 2020-2-4 22:24
楼主,度盘链接有问题,重新给你整了一下


改了,你看现在可以了不?

18

主题

123

帖子

3526

积分

当红偶像

Rank: 4

积分
3526
发表于 2020-2-4 23:25:26 | 显示全部楼层
这个太棒了 楼主辛苦了
 成长值: 320

0

主题

92

帖子

367

积分

VIP1

Rank: 4

积分
367
发表于 2020-2-5 01:00:36 | 显示全部楼层
支持一下!!古典音乐真的好恨

1

主题

147

帖子

188

积分

乐坛新星

Rank: 2

积分
188
发表于 2020-2-5 01:14:37 | 显示全部楼层
多谢分享~~古典平时听的不错。。。不过这套CD感觉很牛叉的样子。。下来听听

4

主题

872

帖子

535

积分

职业歌手

Rank: 3Rank: 3

积分
535
发表于 2020-2-5 07:32:18 | 显示全部楼层
这个大包实在是太爽了,谢谢楼主分享

6

主题

6022

帖子

6618

积分

人气天王

Rank: 5Rank: 5

积分
6618
发表于 2020-2-5 08:43:38 | 显示全部楼层
难得一见的鸿篇巨作,多谢分享!

0

主题

95

帖子

105

积分

新人会员,请认真回复,若恶意回复,直接封号

Rank: 1

积分
105
发表于 2020-2-5 08:47:53 | 显示全部楼层
非常好的一套专辑了!

0

主题

907

帖子

2913

积分

当红偶像

Rank: 4

积分
2913
发表于 2020-2-5 09:31:19 | 显示全部楼层
不错不错,很期待的资源,楼主辛苦了!

0

主题

15

帖子

69

积分

新人会员,请认真回复,若恶意回复,直接封号

Rank: 1

积分
69
发表于 2020-2-5 09:40:58 | 显示全部楼层
我喜欢轻音乐!但是古典的轻松旋律也喜欢!
您需要登录后才可以回帖 登录 | 注册

本版积分规则

快速回复 返回顶部 返回列表