最近看过此主题的会员

查看: 173|回复: 3

[华语] BN原抓:click#15《疯客感官》/整轨WAV/BD

[复制链接]

47

主题

605

帖子

1万

积分

流行教主

Rank: 6Rank: 6

积分
11934

社区QQ达人

发表于 2019-10-9 18:54:36 | 显示全部楼层 |阅读模式

注册会员,获得无损资源下载地址,享受高品质音乐。

您需要 登录 才可以下载或查看,没有帐号?注册

x
封面.jpg


中文名称 疯客感官
外文名称 The FunkyExperince
专辑歌手 Click#15
曲目数量 5首
发行时间 2017-03-09
唱片公司 太合麦田
Click#15专辑介绍:
Click#15的Funk感官——老派、 情欲及Boogie派对
Click#15(可立克15号)不需要过多解释这张作品包含着怎样的音乐故事或创作情绪,这些都通过EP名“《疯客感官》(The Funky Experince)”表达清楚了——他们就是要用伟大摩城时代的Funk音乐那挥汗如雨的节奏,带着你一头扎进一段强劲Groove的体验中去。
这几个摇滚圈的少年天才投向祖师爷James Brown的那股怀旧力道,乐队灵魂人物Ricky从朋克摇滚的狂野背景中吸收了极具爆发性的音乐表现力,并将Prince式的华丽唱腔共冶一炉,第一个音符开始就打开了一道酣畅淋漓的节奏阀门,让灵动的Funk吉他和仿佛从70年代穿越回来的键盘音色尽情地滚淌出来。这股音乐热情略过了耳朵的感官和大脑的思考,直接作用于身体四肢,让你不可抑止地想要随之起舞。
《W.N.L.H.》用简单而有力的英文歌词一遍遍地重复着关于酒精和情欲的派对幻想,后者在《How come u leave me like this》中破碎一段Hip-hop情歌,却有着Old School年代的既视感。而《Steal Your Love 4 Me》和《风吹散记忆》中的绵绵情意在R&B的键盘氛围中缓缓坠落,画面感仿佛美国60年代俱乐部门外的雨中景,一直到《Heartbreaking Rapper from New York》又再次将你我拉回那个James Brown一首打造的Jungle Groove。

Click#15(可立克15号)就是我们年轻灵魂中那块无法安静的部分,在庞大的21世纪渴望退回那个纵情自由的音乐年代。无需多言,Everybody let’s get the party started and get funky!
曲目:
1.W.N.L.H.
2. HowCome U Leave Me Like This
3. Stealyour Love 4 Me
4.风吹散记忆
5. HeartBreaking RapperFrom New york
**************分隔线****************
Exact Audio Copy V1.2 from 12. August 2016
EAC 抓取日志文件从9. 十月 2019, 10:58
click#15 / 疯客感官
使用驱动器  :PLDS    DVDROM DH16D6SH   Adapter: 1  ID: 0
读取模式      : 可靠Secure
使用精确流     : 是
清空音频缓存    : 是
使用 C2 指示器 : 否
读取偏移校正:               : 6
读取 Lead-In 和 Lead-Out : 否
用静音填充抓取中丢失偏移的采样       : 是
去除首尾静音块               : 否
在CRC 计算中使用了空样本       : 是
已用接口                  : Win NT 及 2000 本地 Win32 接口

所用输出模式: : 内部 WAV 函数
样本格式    : 44.100 Hz; 16 Bit; 立体声

已抓取 CD 的 TOC

     音轨 |    起始    |    长度    |  起始扇区  |  结束扇区  
    --------------------------------------------
      1 |  0:00.00 |  4:36.19 |      0 |  20718
      2 |  4:36.19 |  3:35.05 |  20719 |  36848
      3 |  8:11.24 |  6:15.19 |  36849 |  64992
      4 | 14:26.43 |  6:38.59 |  64993 |  94901
      5 | 21:05.27 |  2:48.57 |  94902 | 107558

范围状态及错误
已选择范围
     文件名 E:\自购CD\click#15 - 疯客感官\click#15 - 疯客感官.wav

     峰值电平 82.8 %
     抓取速度 2.5 X
     范围质量 100.0 %
     复制 CRC F58D8465
     复制成功

没有错误发生
AccurateRip 摘要
音轨  1  在数据库中不存在
音轨  2  在数据库中不存在
音轨  3  在数据库中不存在
音轨  4  在数据库中不存在
音轨  5  在数据库中不存在
没有任何音轨在 AccurateRip 数据库中有记录
状态报告结尾
---- CUETools DB Plugin V2.1.6
[CTDB TOCID: UgEYl9RvnbYW4bPzvzdiBa1vHlg-] found
Submit result: UgEYl9RvnbYW4bPzvzdiBa1vHlg- has been confirmed
Track | CTDB Status
  1   | (1/1) Accurately ripped
  2   | (1/1) Accurately ripped
  3   | (1/1) Accurately ripped
  4   | (1/1) Accurately ripped
  5   | (1/1) Accurately ripped
== 记录校验日志 C9155D1844B9EDE16F1C1D94B462445D57CA79054A58E7B203B3FFCDDC683442 ==

**************分隔线****************
游客,如果您要查看本帖隐藏内容请回复

评分

参与人数 1CD +240 收起 理由
最终之战 + 240 很棒的帖子,支持

查看全部评分





懒猫原抓:茶凉粉《某个角落》2018 WAV+CUE/百度云
子芙《到不了的远方—子芙2019音乐自选辑》/整轨WAV/BD
 成长值: 9015

1

主题

107

帖子

991

积分

VIP5

Rank: 8Rank: 8

积分
991
发表于 2019-10-9 21:02:27 | 显示全部楼层
收了,让人惊艳的乐队!感谢楼主分享!

194

主题

1356

帖子

6万

积分

天王巨星

Rank: 7Rank: 7Rank: 7

积分
60780

社区QQ达人灌水勋章

发表于 2019-10-10 17:54:59 | 显示全部楼层
听说很不错的,楼主辛苦
 成长值: 20715

0

主题

30

帖子

208

积分

VIP6

Rank: 9Rank: 9Rank: 9

积分
208
发表于 3 天前 | 显示全部楼层
谢谢分享,click#15,我家小屁孩都喜欢
您需要登录后才可以回帖 登录 | 注册

本版积分规则

快速回复 返回顶部 返回列表