最近看过此主题的会员

查看: 226|回复: 11

流行: Barbra Streisand 《Duets》2002/WAV/度盘

[复制链接]

2

主题

196

帖子

768

积分

职业歌手

Rank: 3Rank: 3

积分
768
发表于 2019-8-27 10:30:23 | 显示全部楼层 |阅读模式

注册会员,获得无损资源下载地址,享受高品质音乐。

您需要 登录 才可以下载或查看,没有帐号?注册

x
71dFZ38z6XL__SS500_.jpg

Barbra Streisand - Duets

Columbia
CD, Album
US
2002
Pop


01 I Won't Be The One To Let Go (feat. Barry Manilow)
02 Guilty (feat. Barry Gibb)
03 You Don't Bring Me Flowers (feat. Neil Diamond)
04 I Finally Found Someone (feat. Bryan Adams)
05 Cryin Time (feat.  Ray Charles)
06 I've Got A Crush On You (feat. Frank Sinatra)
07 Tell Him (with Celine Dion)
08 No More Tears (feat. Donna Summer)
09 What Kind Of Fool (feat. Barry Gibb)
10 I Have A Love/One Hand One Heart (feat. Johnny Mathis)
11 One Less Bell To Answer
12 Lost Inside Of You (with Kris Kristofferson)
13 Till I Loved You (feat. Don Johnson)
14 Make No Mistake He's Mine (feat. Kim Carnes)
15 If You Ever Leave Me (feat. Vince Gill)
16 The Music Of The Night (feat. Michael Crawford)
17 Ding-Dong! The Witch Is Dead (feat. Harold Arlen)
18 Get Happy/Happy Days Are Here Again (feat. Judy Garland)
19 All I Know Of Love (feat. Josh Groban)

度盘下载:链接地址:https://pan.baidu.com/s/1W78OcrVvJ1tkp-cgkxGW4w提取码:
游客,如果您要查看本帖隐藏内容请回复

评分

参与人数 1CD +80 收起 理由
最终之战 + 80

查看全部评分





灵魂/软摇滚:Peabo Bryson《Through the Fire》1994/WAV/度盘
Putumayo World Music---[Israel.(PUT268-2)].专辑.(WV)(BD)

2

主题

196

帖子

768

积分

职业歌手

Rank: 3Rank: 3

积分
768
 楼主| 发表于 2019-8-27 10:32:50 | 显示全部楼层
REM GENRE Pop/Ballad
REM DATE 2002
REM DISCID 2C124413
REM COMMENT "ExactAudioCopy v1.0b3"
PERFORMER "Barbra Streisand"
TITLE "Duets"
FILE "Barbra Streisand - Duets.wav" WAVE
  TRACK 01 AUDIO
    TITLE "I Won't Be The One To Let Go"
    PERFORMER "Barbra Streisand"
    INDEX 01 00:00:00
  TRACK 02 AUDIO
    TITLE "Guilty"
    PERFORMER "Barbra Streisand"
    INDEX 00 04:41:15
    INDEX 01 04:43:30
  TRACK 03 AUDIO
    TITLE "You Don't Bring Me Flowers"
    PERFORMER "Barbra Streisand"
    INDEX 00 09:08:42
    INDEX 01 09:10:57
  TRACK 04 AUDIO
    TITLE "I Finally Found Someone"
    PERFORMER "Barbra Streisand"
    INDEX 00 12:35:42
    INDEX 01 12:37:57
  TRACK 05 AUDIO
    TITLE "Cryin' Time"
    PERFORMER "Barbra Streisand"
    INDEX 00 16:20:27
    INDEX 01 16:22:42
  TRACK 06 AUDIO
    TITLE "I've Got A Crush On You"
    PERFORMER "Barbra Streisand"
    INDEX 00 18:40:10
    INDEX 01 18:42:25
  TRACK 07 AUDIO
    TITLE "Tell Him"
    PERFORMER "Barbra Streisand"
    INDEX 00 22:05:07
    INDEX 01 22:07:22
  TRACK 08 AUDIO
    TITLE "No More Tears"
    PERFORMER "Barbra Streisand"
    INDEX 00 27:00:47
    INDEX 01 27:02:62
  TRACK 09 AUDIO
    TITLE "What Kind Of Fool"
    PERFORMER "Barbra Streisand"
    INDEX 00 31:45:52
    INDEX 01 31:47:67
  TRACK 10 AUDIO
    TITLE "I Have A Love/One Hand One Heart"
    PERFORMER "Barbra Streisand"
    INDEX 00 35:54:47
    INDEX 01 35:56:62
  TRACK 11 AUDIO
    TITLE "One Less Bell To Answer"
    PERFORMER "Barbra Streisand"
    INDEX 00 40:41:50
    INDEX 01 40:43:65
  TRACK 12 AUDIO
    TITLE "Lost Inside Of You"
    PERFORMER "Barbra Streisand"
    INDEX 00 47:15:52
    INDEX 01 47:17:67
  TRACK 13 AUDIO
    TITLE "Till I Loved You"
    PERFORMER "Barbra Streisand"
    INDEX 00 50:13:10
    INDEX 01 50:15:25
  TRACK 14 AUDIO
    TITLE "Make No Mistake He's Mine"
    PERFORMER "Barbra Streisand"
    INDEX 00 54:32:10
    INDEX 01 54:34:25
  TRACK 15 AUDIO
    TITLE "If You Ever Leave Me"
    PERFORMER "Barbra Streisand"
    INDEX 00 58:45:00
    INDEX 01 58:47:15
  TRACK 16 AUDIO
    TITLE "The Music Of The Night"
    PERFORMER "Barbra Streisand"
    INDEX 00 63:24:70
    INDEX 01 63:27:10
  TRACK 17 AUDIO
    TITLE "Ding-Dong! The Witch Is Dead"
    PERFORMER "Barbra Streisand"
    INDEX 00 69:05:10
    INDEX 01 69:07:25
  TRACK 18 AUDIO
    TITLE "Get Happy/Happy Days Are Here Again"
    PERFORMER "Barbra Streisand"
    INDEX 00 71:01:45
    INDEX 01 71:03:60
  TRACK 19 AUDIO
    TITLE "All I Know Of Love"
    PERFORMER "Barbra Streisand"
    INDEX 00 73:25:22
    INDEX 01 73:27:37

0

主题

82

帖子

401

积分

乐坛新星

Rank: 2

积分
401
发表于 2019-8-27 11:19:01 | 显示全部楼层
感谢分享。喜欢她的歌~

0

主题

33

帖子

36

积分

新人会员,请认真回复,若恶意回复,直接封号

Rank: 1

积分
36
发表于 2019-8-28 18:55:03 | 显示全部楼层
谢谢楼主分享!

3

主题

912

帖子

1920

积分

当红偶像

Rank: 4

积分
1920
发表于 2019-8-29 11:08:11 | 显示全部楼层
芭芭拉年轻时候也是个美女啊

0

主题

8334

帖子

3067

积分

当红偶像

Rank: 4

积分
3067
发表于 2019-8-29 13:56:11 | 显示全部楼层
不错,谢谢分享好东西!!!!!!!!!

0

主题

105

帖子

162

积分

乐坛新星

Rank: 2

积分
162
发表于 2019-8-29 19:54:52 | 显示全部楼层
很老的专辑了啊,试试看

0

主题

159

帖子

220

积分

乐坛新星

Rank: 2

积分
220
发表于 2019-9-11 14:09:21 | 显示全部楼层
thanks for sharing!...........

0

主题

22

帖子

77

积分

新人会员,请认真回复,若恶意回复,直接封号

Rank: 1

积分
77
发表于 2019-9-15 16:58:02 | 显示全部楼层
非藏感谢分享!

6

主题

35

帖子

765

积分

职业歌手

Rank: 3Rank: 3

积分
765
发表于 2019-9-21 19:49:59 | 显示全部楼层
感谢楼主分享!!!
integral

0

主题

772

帖子

1076

积分

职业歌手

Rank: 3Rank: 3

积分
1076

社区QQ达人

发表于 2019-9-22 19:36:11 | 显示全部楼层
大牌歌星合唱专辑,收藏了
integral

0

主题

59

帖子

412

积分

乐坛新星

Rank: 2

积分
412

社区QQ达人

发表于 2019-9-30 21:51:15 | 显示全部楼层
感谢楼主分享好东西
您需要登录后才可以回帖 登录 | 注册

本版积分规则

快速回复 返回顶部 返回列表