最近看过此主题的会员

查看: 324|回复: 21

LS原抓:警察乐队The Police -《 Synchronicity 》无损/WAV整轨/百度

[复制链接]

26

主题

445

帖子

4910

积分

人气天王

Rank: 5Rank: 5

积分
4910
发表于 2018-12-10 12:43:56 | 显示全部楼层 |阅读模式

注册会员,获得无损资源下载地址,享受高品质音乐。

您需要 登录 才可以下载或查看,没有帐号?注册

x
本帖最后由 lsgrunge 于 2019-1-7 14:10 编辑

QQ截图20181210115557.jpg QQ截图20181210115610.jpg

        警察乐队,1977年在英国伦敦成立的三人摇滚乐队,七十年代风靡英国、欧洲的乐队之一。由主唱史汀、鼓手科普兰和吉他手萨默斯组成,曾六次获格莱美奖。到现在他们的主唱史汀仍然是格莱美的常客。
        警察乐队的成员是由前“curved air“乐队的鼓手stewartcopeland和纽卡斯尔爵士乐队“no exit”的贝司手/歌手sting于1977年成立的,他们与吉他手andy summers和henry padovani成为一个短期4人乐队。不久,henry padovani离开了该乐队,使之成为3人组合。
        1986年,sting的现场演出双唱片《bring on the night》发行。1987年,sting的新唱片《nothing like the sun》出版。在这张专辑中,sting特邀两位非常著名的吉他手eric clapton 和“dire straits”乐队mark knopfler担任伴奏。sting在这张专辑翻唱了hendrix jimi的名曲制《little wing》。另外.“警察”乐队原来的作品被收集成一张选集《every breath you take:the singles》出版,并成为英国排行榜的冠军。


Exact Audio Copy V1.3 from 2. September 2016


EAC 抓取日志文件从8. 十二月 2018, 11:42


The Police / Synchronicity


使用驱动器  :ASUS    DVD-E818A9T   b   Adapter: 1  ID: 0


读取模式      : 可靠Secure
使用精确流     : 是
清空音频缓存    : 否
使用 C2 指示器 : 否


读取偏移校正:               : 6
读取 Lead-In 和 Lead-Out : 否
用静音填充抓取中丢失偏移的采样       : 是
去除首尾静音块               : 否
在CRC 计算中使用了空样本       : 是
已用接口                  : Win NT 及 2000 本地 Win32 接口


所用输出模式: : 内部 WAV 函数
样本格式    : 44.100 Hz; 16 Bit; 立体声




已抓取 CD 的 TOC


     音轨 |    起始    |    长度    |  起始扇区  |  结束扇区  
    --------------------------------------------
      1 |  0:00.00 |  3:22.65 |      0 |  15214
      2 |  3:22.65 |  3:36.63 |  15215 |  31477
      3 |  6:59.53 |  4:02.17 |  31478 |  49644
      4 | 11:01.70 |  3:05.45 |  49645 |  63564
      5 | 14:07.40 |  2:00.00 |  63565 |  72564
      6 | 16:07.40 |  5:05.15 |  72565 |  95454
      7 | 21:12.55 |  4:13.70 |  95455 | 114499
      8 | 25:26.50 |  4:59.05 | 114500 | 136929
      9 | 30:25.55 |  5:13.55 | 136930 | 160459
     10 | 35:39.35 |  4:15.40 | 160460 | 179624
     11 | 39:55.00 |  4:34.25 | 179625 | 200199




范围状态及错误


已选择范围


     文件名 F:\EAC仓库\The Police - Synchronicity.wav


     峰值电平 100.0 %
     抓取速度 3.0 X
     范围质量 100.0 %
     复制 CRC 2E0A2CAD
     复制成功


没有错误发生



AccurateRip 摘要

音轨  1  精确地校准抓取  2)  [64D44979]  (AR v2)
音轨  2  精确地校准抓取  2)  [2759C6E1]  (AR v2)
音轨  3  精确地校准抓取  2)  [823F81F2]  (AR v2)
音轨  4  精确地校准抓取  2)  [FEE89B3D]  (AR v2)
音轨  5  精确地校准抓取  2)  [1D6A1E1D]  (AR v2)
音轨  6  精确地校准抓取  2)  [B674B0D5]  (AR v2)
音轨  7  精确地校准抓取  2)  [8BA09567]  (AR v2)
音轨  8  精确地校准抓取  2)  [E7DE8965]  (AR v2)
音轨  9  精确地校准抓取  2)  [22570D25]  (AR v2)
音轨 10  精确地校准抓取  2)  [EE8103DE]  (AR v2)
音轨 11  精确地校准抓取  2)  [03F51AA5]  (AR v2)

所有音轨精确校准抓取


状态报告结尾


---- CUETools DB Plugin V2.1.6


[CTDB TOCID: SL81EmYzP.GRGhbSeooxBt0hsQ8-] found
Submit result: SL81EmYzP.GRGhbSeooxBt0hsQ8- has been confirmed
Track | CTDB Status
  1   | (47/50) Accurately ripped
  2   | (50/50) Accurately ripped
  3   | (50/50) Accurately ripped
  4   | (50/50) Accurately ripped
  5   | (50/50) Accurately ripped
  6   | (49/50) Accurately ripped
  7   | (49/50) Accurately ripped
  8   | (49/50) Accurately ripped
  9   | (49/50) Accurately ripped
10   | (49/50) Accurately ripped
11   | (45/50) Accurately ripped

游客,如果您要查看本帖隐藏内容请回复


评分

参与人数 1CD +240 收起 理由
最终之战 + 240 很棒的帖子,支持

查看全部评分





经典爵士乐合集 爵士传奇 Jazz Legends 3CD/FLAC/BD
饶舌嘻哈:Ice Cube《Everythangs Corrupt》2018 /FLAC/BD

0

主题

377

帖子

757

积分

职业歌手

Rank: 3Rank: 3

积分
757
发表于 2018-12-10 12:54:28 | 显示全部楼层
thank for very good original dic
 成长值: 11190

0

主题

4432

帖子

443

积分

VIP6

Rank: 9Rank: 9Rank: 9

积分
443

社区QQ达人

发表于 2018-12-10 14:41:06 | 显示全部楼层
好音乐共享,谢谢楼主!
 成长值: 555

0

主题

348

帖子

218

积分

VIP1

Rank: 4

积分
218

灌水勋章

发表于 2018-12-10 19:50:51 | 显示全部楼层
喜欢、喜欢,一直都很喜欢警察乐队
感谢楼主无私奉献
 成长值: 1770

0

主题

52

帖子

471

积分

VIP2

Rank: 5Rank: 5

积分
471
发表于 2018-12-10 20:17:11 | 显示全部楼层
谢谢分享

252

主题

1232

帖子

6万

积分

天王巨星

金属๑۩۞۩๑王国

Rank: 7Rank: 7Rank: 7

积分
63061

社区QQ达人分享勋章灌水勋章精华帖达人

发表于 2018-12-10 20:30:41 | 显示全部楼层
很有感觉的一首特别迷恋很棒的专辑!
过期资源绝不补档!
integral
 成长值: 270

0

主题

846

帖子

1万

积分

VIP1

Rank: 4

积分
10160
发表于 2018-12-10 21:31:59 | 显示全部楼层
这个很不错!!!!

0

主题

328

帖子

749

积分

职业歌手

Rank: 3Rank: 3

积分
749
QQ
发表于 2018-12-11 19:01:20 | 显示全部楼层
摇滚老炮,感谢楼主分享

0

主题

1019

帖子

2114

积分

当红偶像

Rank: 4

积分
2114
发表于 2018-12-11 20:32:44 | 显示全部楼层
不错,一起下了,谢了

0

主题

109

帖子

198

积分

乐坛新星

Rank: 2

积分
198
发表于 2018-12-12 21:45:13 | 显示全部楼层
感谢楼主无私分享,好音乐值得收藏


0

主题

89

帖子

220

积分

乐坛新星

Rank: 2

积分
220
发表于 2018-12-14 23:43:14 | 显示全部楼层

摇滚老炮,感谢楼主分享
 成长值: 3900

1

主题

19

帖子

612

积分

VIP4

Rank: 7Rank: 7Rank: 7

积分
612
发表于 2018-12-16 00:12:10 | 显示全部楼层
收下来听听,楼主辛苦了,谢谢!!

0

主题

128

帖子

79

积分

新人会员,请认真回复,若恶意回复,直接封号

Rank: 1

积分
79

社区QQ达人

发表于 2018-12-19 15:05:49 | 显示全部楼层
感谢大佬分享资源

0

主题

20

帖子

-6

积分

恶意回复被扣没分了,积分增加方法见置顶帖

积分
-6
发表于 2018-12-25 16:49:03 | 显示全部楼层
谢谢分享 谢谢分享
 成长值: 555

0

主题

45

帖子

1150

积分

VIP1

Rank: 4

积分
1150
发表于 2018-12-25 23:02:32 | 显示全部楼层
谢谢分享好东西
您需要登录后才可以回帖 登录 | 注册

本版积分规则

快速回复 返回顶部 返回列表