最近看过此主题的会员

查看: 540|回复: 11

[MV] Camila Cabello • Havana [2017, Pop, WebDL, 1080p]

[复制链接]
 成长值: 27570

9811

主题

1万

帖子

10万

积分

音乐掌门人

Rank: 20Rank: 20Rank: 20Rank: 20Rank: 20

积分
105306

名人勋章社区QQ达人分享勋章精华帖达人灌水勋章

发表于 2018-1-14 12:23:08 | 显示全部楼层 |阅读模式

注册会员,获得无损资源下载地址,享受高品质音乐。

您需要 登录 才可以下载或查看,没有帐号?注册

x

thumbs20180114122132.jpg

Camila Cabello
Havana



Жанр: Pop
Продолжительность: 00:04:18
Год выпуска: 2017
Качество: WebDL
Разрешение видео/развертка: 1080p
Контейнер: MP4
Видео кодек: H.264
Аудио кодек: AAC
Видео: MPEG4 Video (H264) 1920x1080 25fps 17.0 Mb/s
Аудио: AAC 48000Hz stereo 317kbps
Camila Cabello • Havana [2017 Pop WebDL 1080p].jpg

General
Complete name                  : J:\2018\Camila Cabello - Havana.mp4
Format                         : MPEG-4
Format profile                 : Base Media / Version 2
Codec ID                       : mp42 (mp42/mp41)
File size                      : 532 MiB
Duration                       : 4 min 17 s
Overall bit rate mode          : Variable
Overall bit rate               : 17.3 Mb/s
Encoded date                   : UTC 2017-10-31 11:05:09
Tagged date                    : UTC 2017-10-31 11:05:57
©TIM                           : 00:00:00:00
©TSC                           : 25
©TSZ                           : 1

Video
ID                             : 1
Format                         : AVC
Format/Info                    : Advanced Video Codec
Format profile                 : [email protected]
Format settings, CABAC         : Yes
Format settings, RefFrames     : 3 frames
Codec ID                       : avc1
Codec ID/Info                  : Advanced Video Coding
Duration                       : 4 min 17 s
Bit rate mode                  : Variable
Bit rate                       : 17.0 Mb/s
Maximum bit rate               : 18.0 Mb/s
Width                          : 1 920 pixels
Height                         : 1 080 pixels
Display aspect ratio           : 16:9
Frame rate mode                : Constant
Frame rate                     : 25.000 FPS
Standard                       : PAL
Color space                    : YUV
Chroma subsampling             : 4:2:0
Bit depth                      : 8 bits
Scan type                      : Progressive
Bits/(Pixel*Frame)             : 0.328
Stream size                    : 522 MiB (98%)
Language                       : English
Encoded date                   : UTC 2017-10-31 11:05:10
Tagged date                    : UTC 2017-10-31 11:05:10
Color range                    : Limited
Color primaries                : BT.709
Transfer characteristics       : BT.709
Matrix coefficients            : BT.709

Audio
ID                             : 2
Format                         : AAC
Format/Info                    : Advanced Audio Codec
Format profile                 : LC
Codec ID                       : 40
Duration                       : 4 min 17 s
Source duration                : 4 min 17 s
Bit rate mode                  : Variable
Bit rate                       : 317 kb/s
Maximum bit rate               : 410 kb/s
Channel(s)                     : 2 channels
Channel positions              : Front: L R
Sampling rate                  : 48.0 kHz
Frame rate                     : 46.875 FPS (1024 SPF)
Compression mode               : Lossy
Stream size                    : 9.75 MiB (2%)
Source stream size             : 9.75 MiB (2%)
Language                       : English
Encoded date                   : UTC 2017-10-31 11:05:10
Tagged date                    : UTC 2017-10-31 11:05:10


=============================
百度下载(阿战无损存储)
游客,如果您要查看本帖隐藏内容请回复



上一篇:Camila Cabello • Havana (Latin American Music Awards) [2017, Pop, HDTV, 1080i]
下一篇:By2 - 爱又爱 - MasterRip - MP4 - 1080P - 151M - BD

本人发布的资源,有密码的话都是:www.cdbao.net
关于链接失效的说明(度盘好友分享的说明)
http://www.cdbao.net/thread-117499-1-1.html     
紧急通告:115,快传等网盘取消了分享功能礼包码链接全部失效
http://www.cdbao.net/thread-122759-1-1.html

0

主题

232

帖子

452

积分

职业歌手

Rank: 3Rank: 3

积分
452

社区QQ达人

发表于 2018-1-14 23:19:57 | 显示全部楼层
收下了 很好听的 感激楼主分享

0

主题

88

帖子

67

积分

新人会员,请认真回复,若恶意回复,直接封号

Rank: 1

积分
67

社区QQ达人

发表于 2018-1-20 22:26:23 | 显示全部楼层
找了很久,,感谢

0

主题

450

帖子

-338

积分

恶意回复被扣没分了,积分增加方法见置顶帖

积分
-338

社区QQ达人

发表于 2018-1-29 02:52:47 | 显示全部楼层
谢谢分享!!!!!!!!!!!!!!!!!

0

主题

451

帖子

345

积分

乐坛新星

Rank: 2

积分
345

社区QQ达人

发表于 2018-1-31 19:13:02 | 显示全部楼层
收下了 很好听的 感激楼主分享

0

主题

20

帖子

59

积分

新人会员,请认真回复,若恶意回复,直接封号

Rank: 1

积分
59
发表于 2018-3-3 09:24:35 | 显示全部楼层
下载收藏一个camila 谢谢分享

0

主题

119

帖子

240

积分

乐坛新星

Rank: 2

积分
240
发表于 2018-3-10 21:47:56 | 显示全部楼层
赞赞赞!烧音箱的好音乐!

1

主题

61

帖子

339

积分

乐坛新星

Rank: 2

积分
339

社区QQ达人

发表于 2018-3-16 21:52:12 | 显示全部楼层
好久没上来下载歌了,支持!!!!1

0

主题

63

帖子

34

积分

新人会员,请认真回复,若恶意回复,直接封号

Rank: 1

积分
34

社区QQ达人

发表于 2018-3-20 22:08:52 | 显示全部楼层
ddddddddddddddddddddddddddddddddddddddddddddddddddddddddddddddddddddddddddd

0

主题

20

帖子

86

积分

新人会员,请认真回复,若恶意回复,直接封号

Rank: 1

积分
86
发表于 2018-3-27 10:24:41 | 显示全部楼层

好久没上来下载歌了
好久没上来下载歌了

0

主题

495

帖子

332

积分

乐坛新星

Rank: 2

积分
332

社区QQ达人

发表于 2018-5-12 17:45:48 | 显示全部楼层
感谢分享,纤维论坛越来越强大

1

主题

17

帖子

77

积分

新人会员,请认真回复,若恶意回复,直接封号

Rank: 1

积分
77

社区QQ达人

发表于 前天 12:27 | 显示全部楼层
歌曲特别好听,视频要看!
您需要登录后才可以回帖 登录 | 注册

本版积分规则

快速回复 返回顶部 返回列表