查看: 137|回复: 4

原抓《侧耳倾听》动漫音乐精选 3CD WAV/分轨/度盘

[复制链接]

64

主题

317

帖子

6136

积分

人气天王

Rank: 5Rank: 5

积分
6136
发表于 2016-11-27 21:25:23 | 显示全部楼层 |阅读模式

注册会员,获得无损资源下载地址,享受高品质音乐。

您需要 登录 才可以下载或查看,没有帐号?注册

x
IMG_20161127_211105_1.jpg
IMG_20161127_211315_1.jpg
IMG_20161127_211129_1.jpg

嘛,这次抓的是《动漫时代》制作的《侧耳倾听》动漫音乐精选,共3张CD。这是我00年买的,有十多年的年头了。这套CD收录的都是比较老的动画的主题曲,比如灌篮高手的《好想大声说我爱你》、新世纪福音战士的《残酷的天使纲领》等,详细的大家可以看后面的照片,不多说了,喜欢的就下吧!
链接:
游客,如果您要查看本帖隐藏内容请回复

密码:
游客,如果您要查看本帖隐藏内容请回复

解压密码:www.cdbao.net
CD 1:
Exact Audio Copy V1.1 from 23. June 2015
EAC 抓取日志文件从26. 十一月 2016, 12:08
未知艺术家 / 未知标题
使用驱动器  :SONY    DVD RW DRU-V200A   Adapter: 1  ID: 0
读取模式      : 可靠Secure
使用精确流     : 是
清空音频缓存    : 否
使用 C2 指示器 : 是
组合读写偏移校正:             : 0
读取 Lead-In 和 Lead-Out : 否
用静音填充抓取中丢失偏移的采样       : 是
去除首尾静音块               : 否
在CRC 计算中使用了空样本       : 是
已用接口                  : Win NT 及 2000 本地 Win32 接口
间隙处理                  : 没检测到,因此追加到上一曲目
所用输出模式: : 内部 WAV 函数
样本格式    : 44.100 Hz; 16 Bit; 立体声

已抓取 CD 的 TOC
     音轨 |    起始    |    长度    |  起始扇区  |  结束扇区  
    --------------------------------------------
      1 |  0:00.00 |  8:38.16 |      0 |  38865
      2 |  8:38.16 |  3:39.29 |  38866 |  55319
      3 | 12:17.45 |  3:13.20 |  55320 |  69814
      4 | 15:30.65 |  2:57.38 |  69815 |  83127
      5 | 18:28.28 |  4:59.34 |  83128 | 105586
      6 | 23:27.62 |  4:19.14 | 105587 | 125025
      7 | 27:47.01 |  3:54.63 | 125026 | 142638
      8 | 31:41.64 |  4:41.30 | 142639 | 163743
      9 | 36:23.19 |  4:41.71 | 163744 | 184889
     10 | 41:05.15 |  4:21.73 | 184890 | 204537
     11 | 45:27.13 |  3:51.07 | 204538 | 221869
     12 | 49:18.20 |  5:16.53 | 221870 | 245622
     13 | 54:34.73 |  4:17.66 | 245623 | 264963
     14 | 58:52.64 |  4:23.55 | 264964 | 284743

音轨  1
     文件名 G:\侧耳倾听\CD 1\01 音轨01.wav
     峰值电平 99.9 %
     抓取速度 9.5 X
     音轨质量 100.0 %
     复制 CRC ABC2373E
     复制成功
音轨  2
     文件名 G:\侧耳倾听\CD 1\02 音轨02.wav
     峰值电平 99.9 %
     抓取速度 11.0 X
     音轨质量 100.0 %
     复制 CRC FF5F4CD7
     复制成功
音轨  3
     文件名 G:\侧耳倾听\CD 1\03 音轨03.wav
     峰值电平 100.0 %
     抓取速度 11.6 X
     音轨质量 100.0 %
     复制 CRC 6B42F376
     复制成功
音轨  4
     文件名 G:\侧耳倾听\CD 1\04 音轨04.wav
     峰值电平 100.0 %
     抓取速度 11.5 X
     音轨质量 99.8 %
     复制 CRC EC2B5D9B
     复制成功
音轨  5
     文件名 G:\侧耳倾听\CD 1\05 音轨05.wav
     峰值电平 91.2 %
     抓取速度 12.5 X
     音轨质量 100.0 %
     复制 CRC 21373539
     复制成功
音轨  6
     文件名 G:\侧耳倾听\CD 1\06 音轨06.wav
     峰值电平 100.0 %
     抓取速度 13.6 X
     音轨质量 100.0 %
     复制 CRC DE527BCB
     复制成功
音轨  7
     文件名 G:\侧耳倾听\CD 1\07 音轨07.wav
     峰值电平 100.0 %
     抓取速度 13.6 X
     音轨质量 100.0 %
     复制 CRC 4BAA545D
     复制成功
音轨  8
     文件名 G:\侧耳倾听\CD 1\08 音轨08.wav
     峰值电平 100.0 %
     抓取速度 14.4 X
     音轨质量 99.9 %
     复制 CRC 752BF3CD
     复制成功
音轨  9
     文件名 G:\侧耳倾听\CD 1\09 音轨09.wav
     峰值电平 100.0 %
     抓取速度 15.2 X
     音轨质量 100.0 %
     复制 CRC F98B5C90
     复制成功
音轨 10
     文件名 G:\侧耳倾听\CD 1\10 音轨10.wav
     峰值电平 99.8 %
     抓取速度 16.2 X
     音轨质量 100.0 %
     复制 CRC 5571E5FB
     复制成功
音轨 11
     文件名 G:\侧耳倾听\CD 1\11 音轨11.wav
     峰值电平 99.8 %
     抓取速度 17.0 X
     音轨质量 100.0 %
     复制 CRC BB6C3F08
     复制成功
音轨 12
     文件名 G:\侧耳倾听\CD 1\12 音轨12.wav
     峰值电平 99.8 %
     抓取速度 16.9 X
     音轨质量 100.0 %
     复制 CRC F96DF710
     复制成功
音轨 13
     文件名 G:\侧耳倾听\CD 1\13 音轨13.wav
     峰值电平 99.2 %
     抓取速度 18.1 X
     音轨质量 100.0 %
     复制 CRC E3231AD2
     复制成功
音轨 14
     文件名 G:\侧耳倾听\CD 1\14 音轨14.wav
     峰值电平 99.2 %
     抓取速度 17.9 X
     音轨质量 100.0 %
     复制 CRC D546E7AA
     复制成功
没有错误发生
状态报告结尾
---- CUETools DB Plugin V2.1.6
[CTDB TOCID: _bpmSfw_4wKkddQLFP9b5QsGV70-] found
Submit result: _bpmSfw_4wKkddQLFP9b5QsGV70- has been confirmed
Track | CTDB Status
  1   | (2/2) Accurately ripped
  2   | (2/2) Accurately ripped
  3   | (2/2) Accurately ripped
  4   | (2/2) Accurately ripped
  5   | (2/2) Accurately ripped
  6   | (2/2) Accurately ripped
  7   | (2/2) Accurately ripped
  8   | (2/2) Accurately ripped
  9   | (2/2) Accurately ripped
10   | (2/2) Accurately ripped
11   | (2/2) Accurately ripped
12   | (2/2) Accurately ripped
13   | (2/2) Accurately ripped
14   | (2/2) Accurately ripped

CD 2:
Exact Audio Copy V1.1 from 23. June 2015
EAC 抓取日志文件从26. 十一月 2016, 12:17
未知艺术家 / 未知标题
使用驱动器  :SONY    DVD RW DRU-V200A   Adapter: 1  ID: 0
读取模式      : 可靠Secure
使用精确流     : 是
清空音频缓存    : 否
使用 C2 指示器 : 是
组合读写偏移校正:             : 0
读取 Lead-In 和 Lead-Out : 否
用静音填充抓取中丢失偏移的采样       : 是
去除首尾静音块               : 否
在CRC 计算中使用了空样本       : 是
已用接口                  : Win NT 及 2000 本地 Win32 接口
间隙处理                  : 没检测到,因此追加到上一曲目
所用输出模式: : 内部 WAV 函数
样本格式    : 44.100 Hz; 16 Bit; 立体声

已抓取 CD 的 TOC
     音轨 |    起始    |    长度    |  起始扇区  |  结束扇区  
    --------------------------------------------
      1 |  0:00.00 |  2:38.69 |      0 |  11918
      2 |  2:38.69 |  4:04.47 |  11919 |  30265
      3 |  6:43.41 |  4:37.36 |  30266 |  51076
      4 | 11:21.02 |  5:14.08 |  51077 |  74634
      5 | 16:35.10 |  4:50.43 |  74635 |  96427
      6 | 21:25.53 |  7:53.45 |  96428 | 131947
      7 | 29:19.23 |  5:40.63 | 131948 | 157510
      8 | 35:00.11 |  4:12.27 | 157511 | 176437
      9 | 39:12.38 |  4:26.34 | 176438 | 196421
     10 | 43:38.72 |  6:40.50 | 196422 | 226471
     11 | 50:19.47 |  3:12.60 | 226472 | 240931
     12 | 53:32.32 |  5:21.56 | 240932 | 265062
     13 | 58:54.13 |  1:30.18 | 265063 | 271830

音轨  1
     文件名 G:\侧耳倾听\CD 2\01 音轨01.wav
     峰值电平 100.0 %
     抓取速度 13.5 X
     音轨质量 100.0 %
     复制 CRC 171AE6AB
     复制成功
音轨  2
     文件名 G:\侧耳倾听\CD 2\02 音轨02.wav
     峰值电平 100.0 %
     抓取速度 17.9 X
     音轨质量 100.0 %
     复制 CRC 30706E01
     复制成功
音轨  3
     文件名 G:\侧耳倾听\CD 2\03 音轨03.wav
     峰值电平 100.0 %
     抓取速度 19.7 X
     音轨质量 100.0 %
     复制 CRC EAA1A1C7
     复制成功
音轨  4
     文件名 G:\侧耳倾听\CD 2\04 音轨04.wav
     峰值电平 100.0 %
     抓取速度 21.8 X
     音轨质量 100.0 %
     复制 CRC 4408BC17
     复制成功
音轨  5
     文件名 G:\侧耳倾听\CD 2\05 音轨05.wav
     峰值电平 100.0 %
     抓取速度 23.4 X
     音轨质量 100.0 %
     复制 CRC 722639F3
     复制成功
音轨  6
     文件名 G:\侧耳倾听\CD 2\06 音轨06.wav
     峰值电平 100.0 %
     抓取速度 26.5 X
     音轨质量 100.0 %
     复制 CRC 69254E85
     复制成功
音轨  7
     文件名 G:\侧耳倾听\CD 2\07 音轨07.wav
     峰值电平 100.0 %
     抓取速度 27.9 X
     音轨质量 100.0 %
     复制 CRC FEE0A6B9
     复制成功
音轨  8
     文件名 G:\侧耳倾听\CD 2\08 音轨08.wav
     峰值电平 90.6 %
     抓取速度 28.5 X
     音轨质量 100.0 %
     复制 CRC E04DA7B6
     复制成功
音轨  9
     文件名 G:\侧耳倾听\CD 2\09 音轨09.wav
     峰值电平 89.5 %
     抓取速度 31.2 X
     音轨质量 100.0 %
     复制 CRC E1A56245
     复制成功
音轨 10
     文件名 G:\侧耳倾听\CD 2\10 音轨10.wav
     峰值电平 100.0 %
     抓取速度 33.1 X
     音轨质量 100.0 %
     复制 CRC EDC00955
     复制成功
音轨 11
     文件名 G:\侧耳倾听\CD 2\11 音轨11.wav
     峰值电平 99.9 %
     抓取速度 26.6 X
     音轨质量 99.8 %
     复制 CRC 616C907A
     复制成功
音轨 12
     文件名 G:\侧耳倾听\CD 2\12 音轨12.wav
     峰值电平 100.0 %
     抓取速度 16.5 X
     音轨质量 100.0 %
     复制 CRC B2E18920
     复制成功
音轨 13
     文件名 G:\侧耳倾听\CD 2\13 音轨13.wav
     峰值电平 99.8 %
     抓取速度 27.8 X
     音轨质量 100.0 %
     复制 CRC 49FB93BB
     复制成功
没有错误发生
状态报告结尾
---- CUETools DB Plugin V2.1.6
[CTDB TOCID: mUQL9FCwRHAnDW.KQbtwg7pqJkI-] found
Submit result: mUQL9FCwRHAnDW.KQbtwg7pqJkI- has been confirmed
Track | CTDB Status
  1   | (2/3) Accurately ripped
  2   | (3/3) Accurately ripped
  3   | (3/3) Accurately ripped
  4   | (2/3) Accurately ripped
  5   | (2/3) Accurately ripped
  6   | (2/3) Accurately ripped
  7   | (2/3) Accurately ripped
  8   | (2/3) Accurately ripped
  9   | (2/3) Accurately ripped
10   | (2/3) Accurately ripped
11   | (2/3) Accurately ripped
12   | (2/3) Accurately ripped
13   | (2/3) Accurately ripped

------------------------------------------------------------

CD 3:
Exact Audio Copy V1.1 from 23. June 2015
EAC 抓取日志文件从26. 十一月 2016, 13:36
未知艺术家 / 未知标题
使用驱动器  :SONY    DVD RW DRU-V200A   Adapter: 1  ID: 0
读取模式      : 可靠Secure
使用精确流     : 是
清空音频缓存    : 否
使用 C2 指示器 : 是
组合读写偏移校正:             : 0
读取 Lead-In 和 Lead-Out : 否
用静音填充抓取中丢失偏移的采样       : 是
去除首尾静音块               : 否
在CRC 计算中使用了空样本       : 是
已用接口                  : Win NT 及 2000 本地 Win32 接口
间隙处理                  : 没检测到,因此追加到上一曲目
所用输出模式: : 内部 WAV 函数
样本格式    : 44.100 Hz; 16 Bit; 立体声

已抓取 CD 的 TOC
     音轨 |    起始    |    长度    |  起始扇区  |  结束扇区  
    --------------------------------------------
      1 |  0:00.00 |  3:37.05 |      0 |  16279
      2 |  3:37.05 |  4:08.49 |  16280 |  34928
      3 |  7:45.54 |  4:12.59 |  34929 |  53887
      4 | 11:58.38 |  7:11.51 |  53888 |  86263
      5 | 19:10.14 |  3:33.73 |  86264 | 102311
      6 | 22:44.12 |  4:44.36 | 102312 | 123647
      7 | 27:28.48 |  4:34.32 | 123648 | 144229
      8 | 32:03.05 |  4:37.28 | 144230 | 165032
      9 | 36:40.33 |  5:01.41 | 165033 | 187648
     10 | 41:41.74 |  4:34.40 | 187649 | 208238
     11 | 46:16.39 |  4:28.09 | 208239 | 228347
     12 | 50:44.48 |  5:39.03 | 228348 | 253775
     13 | 56:23.51 |  3:54.47 | 253776 | 271372
     14 | 60:18.23 |  4:08.31 | 271373 | 290003

音轨  1
     文件名 G:\侧耳倾听\CD 3\01 音轨01.wav
     峰值电平 100.0 %
     抓取速度 3.9 X
     音轨质量 100.0 %
     测试 CRC 551D38A9
     复制 CRC 551D38A9
     复制成功
音轨  2
     文件名 G:\侧耳倾听\CD 3\02 音轨02.wav
     峰值电平 100.0 %
     抓取速度 3.9 X
     音轨质量 100.0 %
     测试 CRC 0FDCCD1B
     复制 CRC 0FDCCD1B
     复制成功
音轨  3
     文件名 G:\侧耳倾听\CD 3\03 音轨03.wav
     峰值电平 97.9 %
     抓取速度 3.9 X
     音轨质量 100.0 %
     测试 CRC DD08BDB6
     复制 CRC DD08BDB6
     复制成功
音轨  4
     文件名 G:\侧耳倾听\CD 3\04 音轨04.wav
     峰值电平 99.3 %
     抓取速度 3.8 X
     音轨质量 100.0 %
     测试 CRC 2538288B
     复制 CRC 2538288B
     复制成功
音轨  5
     文件名 G:\侧耳倾听\CD 3\05 音轨05.wav
     峰值电平 100.0 %
     抓取速度 3.9 X
     音轨质量 100.0 %
     测试 CRC 9D8D0F1F
     复制 CRC 9D8D0F1F
     复制成功
音轨  6
     文件名 G:\侧耳倾听\CD 3\06 音轨06.wav
     峰值电平 98.8 %
     抓取速度 3.8 X
     音轨质量 100.0 %
     测试 CRC 39B0080B
     复制 CRC 39B0080B
     复制成功
音轨  7
     文件名 G:\侧耳倾听\CD 3\07 音轨07.wav
     峰值电平 99.9 %
     抓取速度 3.9 X
     音轨质量 100.0 %
     测试 CRC 6171B50E
     复制 CRC 6171B50E
     复制成功
音轨  8
     文件名 G:\侧耳倾听\CD 3\08 音轨08.wav
     峰值电平 99.8 %
     抓取速度 3.9 X
     音轨质量 100.0 %
     测试 CRC 0BAE3717
     复制 CRC 0BAE3717
     复制成功
音轨  9
     文件名 G:\侧耳倾听\CD 3\09 音轨09.wav
     峰值电平 96.2 %
     抓取速度 3.9 X
     音轨质量 100.0 %
     测试 CRC B470CB37
     复制 CRC B470CB37
     复制成功
音轨 10
     文件名 G:\侧耳倾听\CD 3\10 音轨10.wav
     峰值电平 99.8 %
     抓取速度 3.8 X
     音轨质量 100.0 %
     测试 CRC 8CFEB09B
     复制 CRC 8CFEB09B
     复制成功
音轨 11
     文件名 G:\侧耳倾听\CD 3\11 音轨11.wav
     峰值电平 100.0 %
     抓取速度 3.9 X
     音轨质量 100.0 %
     测试 CRC 9D53FE40
     复制 CRC 9D53FE40
     复制成功
音轨 12
     文件名 G:\侧耳倾听\CD 3\12 音轨12.wav
     峰值电平 97.9 %
     抓取速度 3.8 X
     音轨质量 99.9 %
     测试 CRC 3B18657A
     复制 CRC 3B18657A
     复制成功
音轨 13
     文件名 G:\侧耳倾听\CD 3\13 音轨13.wav
     峰值电平 99.9 %
     抓取速度 1.8 X
     音轨质量 98.4 %
     测试 CRC 153113AF
     复制 CRC 8756494D
     复制成功
音轨 14
     文件名 G:\侧耳倾听\CD 3\14 音轨14.wav
     可疑位置 0:03:29
     峰值电平 86.6 %
     抓取速度 0.4 X
     音轨质量 95.7 %
     测试 CRC B8677C9D
     复制 CRC 14763AC4
     复制结束
出现错误
状态报告结尾
---- CUETools DB Plugin V2.1.6
[CTDB TOCID: iQJCVou1S4VRey7ddiukGyh7BZ8-] found
Submit result: insufficient quality
Track | CTDB Status
  1   | (3/3) Accurately ripped
  2   | (3/3) Accurately ripped
  3   | (3/3) Accurately ripped
  4   | (3/3) Accurately ripped
  5   | (3/3) Accurately ripped
  6   | (3/3) Accurately ripped
  7   | (3/3) Accurately ripped
  8   | (3/3) Accurately ripped
  9   | (3/3) Accurately ripped
10   | (3/3) Accurately ripped
11   | (3/3) Accurately ripped
12   | (2/3) Accurately ripped, or (1/3) differs in 61 samples @04:24:20,04:34:57,04:37:43
13   | (1/3) Differs in 40 samples @00:23:24,00:53:08,02:13:48,02:21:37-02:21:38,02:31:55,02:45:68,02:54:24,02:54:44,02:59:04,03:09:64,03:41:40,03:41:59-03:41:60,03:50:19, or (1/3) differs in 40 samples @00:23:24,00:53:08,02:13:48,02:21:37-02:21:38,02:31:55,02:45:68,02:54:24,02:54:44,02:59:04,03:09:64,03:41:40,03:41:59-03:41:60,03:50:19
14   | (1/3) Differs in 305 samples @00:01:54,00:09:11,00:10:15,00:10:35,00:13:09,00:13:48-00:13:49,00:17:67,00:21:06,00:26:29,00:27:34,00:31:12,00:31:53,00:32:57,00:43:29,00:48:14,00:56:53,01:07:28,01:10:23,01:14:23,01:20:13,01:23:48-01:23:49,01:24:74,01:27:49,01:28:54,01:28:74,01:32:15,01:35:10,01:37:41,01:41:01-01:41:02,01:46:68,01:54:10,01:54:71,01:56:01,02:01:69,02:03:19,02:10:38,02:11:03,02:12:08,02:14:40,02:19:67,02:21:58,02:22:64,02:24:15,02:25:00,02:26:06,02:28:38,02:29:03,02:35:37,02:42:37-02:42:38,02:43:43,02:43:63-02:43:64,02:54:47,02:55:33,02:56:39,02:56:59,02:57:04,02:57:45,02:58:50,02:58:71,03:00:42,03:01:69,03:04:46,03:04:66,03:13:19,03:13:39,03:13:59,03:15:72,03:16:57,03:17:44,03:18:70,03:20:21,03:21:68,03:28:30,03:29:15-03:29:16,03:31:48-03:31:49,03:33:40-03:33:41,03:34:47,03:40:44,03:41:71,03:46:61,03:53:04,03:53:65-03:53:66,03:54:72,03:57:70-03:57:71,03:58:36,03:59:43,04:01:56,04:02:42,04:04:55, or (1/3) differs in 305 samples @00:01:54,00:09:11,00:10:15,00:10:35,00:13:09,00:13:48-00:13:49,00:17:67,00:21:06,00:26:29,00:27:34,00:31:12,00:31:53,00:32:57,00:43:29,00:48:14,00:56:53,01:07:28,01:10:23,01:14:23,01:20:13,01:23:48-01:23:49,01:24:74,01:27:49,01:28:54,01:28:74,01:32:15,01:35:10,01:37:41,01:41:01-01:41:02,01:46:68,01:54:10,01:54:71,01:56:01,02:01:69,02:03:19,02:10:38,02:11:03,02:12:08,02:14:40,02:19:67,02:21:58,02:22:64,02:24:15,02:25:00,02:26:06,02:28:38,02:29:03,02:35:37,02:42:37-02:42:38,02:43:43,02:43:63-02:43:64,02:54:47,02:55:33,02:56:39,02:56:59,02:57:04,02:57:45,02:58:50,02:58:71,03:00:42,03:01:69,03:04:46,03:04:66,03:13:19,03:13:39,03:13:59,03:15:72,03:16:57,03:17:44,03:18:70,03:20:21,03:21:68,03:28:30,03:29:15-03:29:16,03:31:48-03:31:49,03:33:40-03:33:41,03:34:47,03:40:44,03:41:71,03:46:61,03:53:04,03:53:65-03:53:66,03:54:72,03:57:70-03:57:71,03:58:36,03:59:43,04:01:56,04:02:42,04:04:55
If you are sure that your rip contains errors, you can use CUETools to repair it.

------------------------------------------------------------

评分

参与人数 1CD +400 收起 理由
最终之战 + 400 很棒的帖子,支持

查看全部评分




上一篇:原抓 《动感新势力》VOL.7 CD WAV/分轨/度盘 赠VCD
下一篇:原抓 《动感新势力》VOL.9 WAV/分轨/度盘 附VCD

1

主题

187

帖子

2457

积分

当红偶像

Rank: 4

积分
2457
发表于 2016-11-27 23:33:41 | 显示全部楼层
支持支持!原来不止宫老头子的侧耳倾听,是一张合集

0

主题

11

帖子

711

积分

职业歌手

Rank: 3Rank: 3

积分
711
发表于 7 天前 | 显示全部楼层
感谢分享~找回了当年蹲点书报亭的记忆

0

主题

1432

帖子

600

积分

职业歌手

Rank: 3Rank: 3

积分
600
发表于 7 天前 | 显示全部楼层
往日的记忆,很棒,谢谢分享好东西!@@@@!!!!!!!!!!!!!!!!!!!!!!!!!

2

主题

421

帖子

296

积分

乐坛新星

Rank: 2

积分
296

社区QQ达人

发表于 7 天前 | 显示全部楼层
这个专辑不错,收藏,感谢楼主分享。。。
您需要登录后才可以回帖 登录 | 注册

本版积分规则

快速回复 返回顶部 返回列表