查看: 143|回复: 4

原抓 传说系列音乐盛典《天籁传说》 WAV/分轨/度盘

[复制链接]

66

主题

320

帖子

6993

积分

人气天王

Rank: 5Rank: 5

积分
6993
发表于 2016-11-24 21:12:39 | 显示全部楼层 |阅读模式

注册会员,获得无损资源下载地址,享受高品质音乐。

您需要 登录 才可以下载或查看,没有帐号?注册

x
本帖最后由 龙王机 于 2016-11-24 21:26 编辑

“传说”系列,相信TV GAME 玩家都听说过。每一作“传说”系列,都有一首动人的主题曲(有的还有ED曲),和一段精美的手绘OP动画。这次我抓的是动漫游工作室出品的《天籁传说》,包括了幻想、宿命、永恒、仙乐、重生、神话、深渊、风雨八个传说系列的OP和ED曲,以及游戏中的经典音乐,共四张CD,喜欢的就可以下啦!

CD A:
01.梦は终わらない ~こぼれ落ちる时の雫~(幻想传说)
02.星を空に(幻想传说)
03.梦であるように(宿命传说)
04.flying(永恒传说)
05.Eighteen(永恒传说)
06.Key to my heart(宿命传说2)
07.Starry Heavens(仙乐传说NGC版)
08.そして仆にできるコト(仙乐传说PS2版)
09.good night(重生传说)
10.TAO(神话传说)
11.my tales(神话传说)
12.カルマ(深渊传说)
13.VS(风雨传说)
14.纸ヒコーキ(世界传说 光明神话)

Exact Audio Copy V1.1 from 23. June 2015
EAC 抓取日志文件从24. 十一月 2016, 15:04
未知艺术家 / 未知标题
使用驱动器  :SONY    CD-RW  CRX230E   Adapter: 1  ID: 1
读取模式      : 可靠Secure
使用精确流     : 是
清空音频缓存    : 是
使用 C2 指示器 : 是
读取偏移校正:               : 6
读取 Lead-In 和 Lead-Out : 否
用静音填充抓取中丢失偏移的采样       : 是
去除首尾静音块               : 否
在CRC 计算中使用了空样本       : 是
已用接口                  : Win NT 及 2000 本地 Win32 接口
间隙处理                  : 没检测到,因此追加到上一曲目
所用输出模式: : 内部 WAV 函数
样本格式    : 44.100 Hz; 16 Bit; 立体声

已抓取 CD 的 TOC
     音轨 |    起始    |    长度    |  起始扇区  |  结束扇区  
    --------------------------------------------
      1 |  0:00.00 |  4:18.54 |      0 |  19403
      2 |  4:18.54 |  4:58.44 |  19404 |  41797
      3 |  9:17.23 |  4:39.15 |  41798 |  62737
      4 | 13:56.38 |  4:31.36 |  62738 |  83098
      5 | 18:27.74 |  3:36.18 |  83099 |  99316
      6 | 22:04.17 |  3:31.13 |  99317 | 115154
      7 | 25:35.30 |  4:48.54 | 115155 | 136808
      8 | 30:24.09 |  4:19.43 | 136809 | 156276
      9 | 34:43.52 |  4:59.57 | 156277 | 178758
     10 | 39:43.34 |  4:39.54 | 178759 | 199737
     11 | 44:23.13 |  5:26.39 | 199738 | 224226
     12 | 49:49.52 |  3:21.44 | 224227 | 239345
     13 | 53:11.21 |  4:17.13 | 239346 | 258633
     14 | 57:28.34 |  4:21.32 | 258634 | 278240

音轨  1
     文件名 G:\天籁传说\CD A\01 音轨01.wav
     峰值电平 91.0 %
     抓取速度 5.8 X
     音轨质量 100.0 %
     复制 CRC C749B465
     精确校准地抓取  1)  [F6DB9A41]  (AR v2)
     复制成功
音轨  2
     文件名 G:\天籁传说\CD A\02 音轨02.wav
     峰值电平 91.0 %
     抓取速度 2.1 X
     音轨质量 99.9 %
     复制 CRC 418AB811
     精确校准地抓取  1)  [1D05B308]  (AR v2)
     复制成功
音轨  3
     文件名 G:\天籁传说\CD A\03 音轨03.wav
     峰值电平 91.0 %
     抓取速度 3.0 X
     音轨质量 100.0 %
     复制 CRC 4D5F44A2
     精确校准地抓取  1)  [7A4B391E]  (AR v2)
     复制成功
音轨  4
     文件名 G:\天籁传说\CD A\04 音轨04.wav
     峰值电平 91.0 %
     抓取速度 2.0 X
     音轨质量 99.9 %
     复制 CRC A091DAF9
     精确校准地抓取  1)  [3C24DFB2]  (AR v2)
     复制成功
音轨  5
     文件名 G:\天籁传说\CD A\05 音轨05.wav
     峰值电平 90.9 %
     抓取速度 2.9 X
     音轨质量 100.0 %
     复制 CRC 45837DB3
     精确校准地抓取  1)  [4D2D61CF]  (AR v2)
     复制成功
音轨  6
     文件名 G:\天籁传说\CD A\06 音轨06.wav
     峰值电平 91.0 %
     抓取速度 2.9 X
     音轨质量 100.0 %
     复制 CRC C73DC99F
     精确校准地抓取  1)  [38F35D5F]  (AR v2)
     复制成功
音轨  7
     文件名 G:\天籁传说\CD A\07 音轨07.wav
     峰值电平 91.0 %
     抓取速度 2.1 X
     音轨质量 99.9 %
     复制 CRC 433DA433
     精确校准地抓取  1)  [D45A2A39]  (AR v2)
     复制成功
音轨  8
     文件名 G:\天籁传说\CD A\08 音轨08.wav
     峰值电平 91.0 %
     抓取速度 3.0 X
     音轨质量 100.0 %
     复制 CRC B54A754B
     精确校准地抓取  1)  [A2EAFD34]  (AR v2)
     复制成功
音轨  9
     文件名 G:\天籁传说\CD A\09 音轨09.wav
     峰值电平 91.0 %
     抓取速度 3.1 X
     音轨质量 100.0 %
     复制 CRC 82FDA244
     精确校准地抓取  1)  [B0E2ACBB]  (AR v2)
     复制成功
音轨 10
     文件名 G:\天籁传说\CD A\10 音轨10.wav
     峰值电平 91.0 %
     抓取速度 3.1 X
     音轨质量 100.0 %
     复制 CRC D099F0D0
     精确校准地抓取  1)  [9135BDCC]  (AR v2)
     复制成功
音轨 11
     文件名 G:\天籁传说\CD A\11 音轨11.wav
     峰值电平 91.2 %
     抓取速度 3.1 X
     音轨质量 100.0 %
     复制 CRC 97C507AA
     精确校准地抓取  1)  [076D29E2]  (AR v2)
     复制成功
音轨 12
     文件名 G:\天籁传说\CD A\12 音轨12.wav
     峰值电平 91.0 %
     抓取速度 2.9 X
     音轨质量 100.0 %
     复制 CRC EB24F1FB
     精确校准地抓取  1)  [A52B2606]  (AR v2)
     复制成功
音轨 13
     文件名 G:\天籁传说\CD A\13 音轨13.wav
     峰值电平 91.0 %
     抓取速度 2.0 X
     音轨质量 99.9 %
     复制 CRC B5D8F16A
     精确校准地抓取  1)  [37A7C162]  (AR v2)
     复制成功
音轨 14
     文件名 G:\天籁传说\CD A\14 音轨14.wav
     峰值电平 91.0 %
     抓取速度 3.0 X
     音轨质量 100.0 %
     复制 CRC F668FE0D
     精确校准地抓取  1)  [F974900C]  (AR v2)
     复制成功

所有音轨精确校准抓取
没有错误发生
状态报告结尾
---- CUETools DB Plugin V2.1.6
[CTDB TOCID: l5mlnzd3LgyGslIONl.QZ1D366I-] found
Submit result: already submitted
Track | CTDB Status
  1   | (4/4) Accurately ripped
  2   | (4/4) Accurately ripped
  3   | (4/4) Accurately ripped
  4   | (4/4) Accurately ripped
  5   | (4/4) Accurately ripped
  6   | (4/4) Accurately ripped
  7   | (4/4) Accurately ripped
  8   | (4/4) Accurately ripped
  9   | (4/4) Accurately ripped
10   | (4/4) Accurately ripped
11   | (4/4) Accurately ripped
12   | (4/4) Accurately ripped
13   | (4/4) Accurately ripped
14   | (4/4) Accurately ripped

CD B:
Exact Audio Copy V1.1 from 23. June 2015
EAC 抓取日志文件从24. 十一月 2016, 13:46
未知艺术家 / 未知标题
使用驱动器  :SONY    CD-RW  CRX230E   Adapter: 1  ID: 1
读取模式      : 可靠Secure
使用精确流     : 是
清空音频缓存    : 是
使用 C2 指示器 : 是
读取偏移校正:               : 6
读取 Lead-In 和 Lead-Out : 否
用静音填充抓取中丢失偏移的采样       : 是
去除首尾静音块               : 否
在CRC 计算中使用了空样本       : 是
已用接口                  : Win NT 及 2000 本地 Win32 接口
间隙处理                  : 没检测到,因此追加到上一曲目
所用输出模式: : 内部 WAV 函数
样本格式    : 44.100 Hz; 16 Bit; 立体声

已抓取 CD 的 TOC
     音轨 |    起始    |    长度    |  起始扇区  |  结束扇区  
    --------------------------------------------
      1 |  0:00.00 |  1:36.45 |      0 |   7244
      2 |  1:36.45 |  1:49.41 |   7245 |  15460
      3 |  3:26.11 |  2:23.48 |  15461 |  26233
      4 |  5:49.59 |  2:26.11 |  26234 |  37194
      5 |  8:15.70 |  2:14.31 |  37195 |  47275
      6 | 10:30.26 |  1:33.42 |  47276 |  54292
      7 | 12:03.68 |  2:28.04 |  54293 |  65396
      8 | 14:31.72 |  2:01.39 |  65397 |  74510
      9 | 16:33.36 |  2:33.74 |  74511 |  86059
     10 | 19:07.35 |  1:11.43 |  86060 |  91427
     11 | 20:19.03 |  2:04.41 |  91428 | 100768
     12 | 22:23.44 |  1:52.40 | 100769 | 109208
     13 | 24:16.09 |  3:37.48 | 109209 | 125531
     14 | 27:53.57 |  4:40.37 | 125532 | 146568
     15 | 32:34.19 |  3:30.74 | 146569 | 162392
     16 | 36:05.18 |  1:50.04 | 162393 | 170646
     17 | 37:55.22 |  2:08.27 | 170647 | 180273
     18 | 40:03.49 |  1:51.03 | 180274 | 188601
     19 | 41:54.52 |  0:56.57 | 188602 | 192858
     20 | 42:51.34 |  1:28.10 | 192859 | 199468
     21 | 44:19.44 |  1:32.31 | 199469 | 206399
     22 | 45:52.00 |  1:06.08 | 206400 | 211357
     23 | 46:58.08 |  1:17.02 | 211358 | 217134
     24 | 48:15.10 |  0:57.21 | 217135 | 221430
     25 | 49:12.31 |  1:31.45 | 221431 | 228300
     26 | 50:44.01 |  1:08.62 | 228301 | 233462
     27 | 51:52.63 |  1:17.32 | 233463 | 239269
     28 | 53:10.20 |  1:10.04 | 239270 | 244523
     29 | 54:20.24 |  1:52.30 | 244524 | 252953
     30 | 56:12.54 |  1:18.60 | 252954 | 258863
     31 | 57:31.39 |  1:06.36 | 258864 | 263849
     32 | 58:38.00 |  1:31.18 | 263850 | 270692
     33 | 60:09.18 |  1:11.68 | 270693 | 276085
     34 | 61:21.11 |  1:30.62 | 276086 | 282897
     35 | 62:51.73 |  1:19.13 | 282898 | 288835

音轨  1
     文件名 G:\天籁传说\CD B\01 音轨01.wav
     峰值电平 91.2 %
     抓取速度 4.1 X
     音轨质量 100.0 %
     复制 CRC E5886292
     音轨在 AccurateRip 数据库中无记录
     复制成功
音轨  2
     文件名 G:\天籁传说\CD B\02 音轨02.wav
     峰值电平 90.9 %
     抓取速度 2.3 X
     音轨质量 100.0 %
     复制 CRC 7D2207C9
     音轨在 AccurateRip 数据库中无记录
     复制成功
音轨  3
     文件名 G:\天籁传说\CD B\03 音轨03.wav
     峰值电平 90.7 %
     抓取速度 2.7 X
     音轨质量 100.0 %
     复制 CRC 0A15FB91
     音轨在 AccurateRip 数据库中无记录
     复制成功
音轨  4
     文件名 G:\天籁传说\CD B\04 音轨04.wav
     峰值电平 91.2 %
     抓取速度 2.6 X
     音轨质量 100.0 %
     复制 CRC EE041777
     音轨在 AccurateRip 数据库中无记录
     复制成功
音轨  5
     文件名 G:\天籁传说\CD B\05 音轨05.wav
     峰值电平 90.7 %
     抓取速度 2.5 X
     音轨质量 100.0 %
     复制 CRC 5D25CF5A
     音轨在 AccurateRip 数据库中无记录
     复制成功
音轨  6
     文件名 G:\天籁传说\CD B\06 音轨06.wav
     峰值电平 91.0 %
     抓取速度 2.3 X
     音轨质量 100.0 %
     复制 CRC 16A450D7
     音轨在 AccurateRip 数据库中无记录
     复制成功
音轨  7
     文件名 G:\天籁传说\CD B\07 音轨07.wav
     峰值电平 90.8 %
     抓取速度 2.6 X
     音轨质量 100.0 %
     复制 CRC D1C3A0AC
     音轨在 AccurateRip 数据库中无记录
     复制成功
音轨  8
     文件名 G:\天籁传说\CD B\08 音轨08.wav
     峰值电平 91.0 %
     抓取速度 2.5 X
     音轨质量 100.0 %
     复制 CRC 4D81CD48
     音轨在 AccurateRip 数据库中无记录
     复制成功
音轨  9
     文件名 G:\天籁传说\CD B\09 音轨09.wav
     峰值电平 91.0 %
     抓取速度 2.7 X
     音轨质量 100.0 %
     复制 CRC 64FDAC4E
     音轨在 AccurateRip 数据库中无记录
     复制成功
音轨 10
     文件名 G:\天籁传说\CD B\10 音轨10.wav
     峰值电平 91.0 %
     抓取速度 2.1 X
     音轨质量 100.0 %
     复制 CRC E9891281
     音轨在 AccurateRip 数据库中无记录
     复制成功
音轨 11
     文件名 G:\天籁传说\CD B\11 音轨11.wav
     峰值电平 91.0 %
     抓取速度 2.6 X
     音轨质量 100.0 %
     复制 CRC 5A08D148
     音轨在 AccurateRip 数据库中无记录
     复制成功
音轨 12
     文件名 G:\天籁传说\CD B\12 音轨12.wav
     峰值电平 91.4 %
     抓取速度 2.5 X
     音轨质量 100.0 %
     复制 CRC AEA9559D
     音轨在 AccurateRip 数据库中无记录
     复制成功
音轨 13
     文件名 G:\天籁传说\CD B\13 音轨13.wav
     峰值电平 91.2 %
     抓取速度 1.8 X
     音轨质量 99.9 %
     复制 CRC FC606DA3
     音轨在 AccurateRip 数据库中无记录
     复制成功
音轨 14
     文件名 G:\天籁传说\CD B\14 音轨14.wav
     峰值电平 91.0 %
     抓取速度 3.0 X
     音轨质量 100.0 %
     复制 CRC B23B8048
     音轨在 AccurateRip 数据库中无记录
     复制成功
音轨 15
     文件名 G:\天籁传说\CD B\15 音轨15.wav
     峰值电平 91.0 %
     抓取速度 2.9 X
     音轨质量 100.0 %
     复制 CRC 0CD2BE1D
     音轨在 AccurateRip 数据库中无记录
     复制成功
音轨 16
     文件名 G:\天籁传说\CD B\16 音轨16.wav
     峰值电平 91.3 %
     抓取速度 2.4 X
     音轨质量 100.0 %
     复制 CRC F02456DD
     音轨在 AccurateRip 数据库中无记录
     复制成功
音轨 17
     文件名 G:\天籁传说\CD B\17 音轨17.wav
     峰值电平 91.2 %
     抓取速度 2.5 X
     音轨质量 100.0 %
     复制 CRC 94E09A2E
     音轨在 AccurateRip 数据库中无记录
     复制成功
音轨 18
     文件名 G:\天籁传说\CD B\18 音轨18.wav
     峰值电平 91.4 %
     抓取速度 2.5 X
     音轨质量 100.0 %
     复制 CRC 6D93535A
     音轨在 AccurateRip 数据库中无记录
     复制成功
音轨 19
     文件名 G:\天籁传说\CD B\19 音轨19.wav
     峰值电平 90.7 %
     抓取速度 1.8 X
     音轨质量 100.0 %
     复制 CRC C3CB1ECF
     音轨在 AccurateRip 数据库中无记录
     复制成功
音轨 20
     文件名 G:\天籁传说\CD B\20 音轨20.wav
     峰值电平 91.1 %
     抓取速度 2.2 X
     音轨质量 100.0 %
     复制 CRC 24F811CF
     音轨在 AccurateRip 数据库中无记录
     复制成功
音轨 21
     文件名 G:\天籁传说\CD B\21 音轨21.wav
     峰值电平 91.0 %
     抓取速度 1.1 X
     音轨质量 99.7 %
     复制 CRC BEBD3A13
     音轨在 AccurateRip 数据库中无记录
     复制成功
音轨 22
     文件名 G:\天籁传说\CD B\22 音轨22.wav
     峰值电平 91.2 %
     抓取速度 2.0 X
     音轨质量 100.0 %
     复制 CRC 9AC97387
     音轨在 AccurateRip 数据库中无记录
     复制成功
音轨 23
     文件名 G:\天籁传说\CD B\23 音轨23.wav
     峰值电平 91.0 %
     抓取速度 2.1 X
     音轨质量 100.0 %
     复制 CRC B1C4196A
     音轨在 AccurateRip 数据库中无记录
     复制成功
音轨 24
     文件名 G:\天籁传说\CD B\24 音轨24.wav
     峰值电平 91.0 %
     抓取速度 1.9 X
     音轨质量 100.0 %
     复制 CRC 9C2D2E10
     音轨在 AccurateRip 数据库中无记录
     复制成功
音轨 25
     文件名 G:\天籁传说\CD B\25 音轨25.wav
     峰值电平 91.0 %
     抓取速度 2.3 X
     音轨质量 100.0 %
     复制 CRC B165AFFB
     音轨在 AccurateRip 数据库中无记录
     复制成功
音轨 26
     文件名 G:\天籁传说\CD B\26 音轨26.wav
     峰值电平 90.7 %
     抓取速度 0.9 X
     音轨质量 99.6 %
     复制 CRC 3BA5673F
     音轨在 AccurateRip 数据库中无记录
     复制成功
音轨 27
     文件名 G:\天籁传说\CD B\27 音轨27.wav
     峰值电平 91.0 %
     抓取速度 0.9 X
     音轨质量 99.7 %
     复制 CRC 9CB8F020
     音轨在 AccurateRip 数据库中无记录
     复制成功
音轨 28
     文件名 G:\天籁传说\CD B\28 音轨28.wav
     峰值电平 90.7 %
     抓取速度 2.1 X
     音轨质量 100.0 %
     复制 CRC 397BF040
     音轨在 AccurateRip 数据库中无记录
     复制成功
音轨 29
     文件名 G:\天籁传说\CD B\29 音轨29.wav
     峰值电平 91.0 %
     抓取速度 2.5 X
     音轨质量 100.0 %
     复制 CRC B04F2F80
     音轨在 AccurateRip 数据库中无记录
     复制成功
音轨 30
     文件名 G:\天籁传说\CD B\30 音轨30.wav
     峰值电平 91.0 %
     抓取速度 2.2 X
     音轨质量 100.0 %
     复制 CRC E96F86FB
     音轨在 AccurateRip 数据库中无记录
     复制成功
音轨 31
     文件名 G:\天籁传说\CD B\31 音轨31.wav
     峰值电平 91.0 %
     抓取速度 2.0 X
     音轨质量 100.0 %
     复制 CRC A12CA0FA
     音轨在 AccurateRip 数据库中无记录
     复制成功
音轨 32
     文件名 G:\天籁传说\CD B\32 音轨32.wav
     峰值电平 91.0 %
     抓取速度 2.3 X
     音轨质量 100.0 %
     复制 CRC 9D53F03B
     音轨在 AccurateRip 数据库中无记录
     复制成功
音轨 33
     文件名 G:\天籁传说\CD B\33 音轨33.wav
     峰值电平 91.0 %
     抓取速度 2.1 X
     音轨质量 100.0 %
     复制 CRC 5E7C1469
     音轨在 AccurateRip 数据库中无记录
     复制成功
音轨 34
     文件名 G:\天籁传说\CD B\34 音轨34.wav
     峰值电平 91.0 %
     抓取速度 1.0 X
     音轨质量 99.7 %
     复制 CRC C8C5CFCB
     音轨在 AccurateRip 数据库中无记录
     复制成功
音轨 35
     文件名 G:\天籁传说\CD B\35 音轨35.wav
     峰值电平 91.0 %
     抓取速度 2.1 X
     音轨质量 100.0 %
     复制 CRC 2294D179
     音轨在 AccurateRip 数据库中无记录
     复制成功

没有任何音轨在 AccurateRip 数据库中有记录
没有错误发生
状态报告结尾
---- CUETools DB Plugin V2.1.6
[CTDB TOCID: iuv5wro8MXUPvI2yQP1aMKb6nMQ-] disk not present in database
Submit result: iuv5wro8MXUPvI2yQP1aMKb6nMQ- has been uploaded

CD C:
Exact Audio Copy V1.1 from 23. June 2015
EAC 抓取日志文件从24. 十一月 2016, 14:10
未知艺术家 / 未知标题
使用驱动器  :SONY    CD-RW  CRX230E   Adapter: 1  ID: 1
读取模式      : 可靠Secure
使用精确流     : 是
清空音频缓存    : 是
使用 C2 指示器 : 是
读取偏移校正:               : 6
读取 Lead-In 和 Lead-Out : 否
用静音填充抓取中丢失偏移的采样       : 是
去除首尾静音块               : 否
在CRC 计算中使用了空样本       : 是
已用接口                  : Win NT 及 2000 本地 Win32 接口
间隙处理                  : 没检测到,因此追加到上一曲目
所用输出模式: : 内部 WAV 函数
样本格式    : 44.100 Hz; 16 Bit; 立体声

已抓取 CD 的 TOC
     音轨 |    起始    |    长度    |  起始扇区  |  结束扇区  
    --------------------------------------------
      1 |  0:00.00 |  0:49.39 |      0 |   3713
      2 |  0:49.39 |  4:44.06 |   3714 |  25019
      3 |  5:33.45 |  2:06.08 |  25020 |  34477
      4 |  7:39.53 |  2:25.39 |  34478 |  45391
      5 | 10:05.17 |  2:54.53 |  45392 |  58494
      6 | 12:59.70 |  2:13.01 |  58495 |  68470
      7 | 15:12.71 |  2:59.63 |  68471 |  81958
      8 | 18:12.59 |  2:38.44 |  81959 |  93852
      9 | 20:51.28 |  2:55.36 |  93853 | 107013
     10 | 23:46.64 |  2:53.69 | 107014 | 120057
     11 | 26:40.58 |  2:01.11 | 120058 | 129143
     12 | 28:41.69 |  3:05.31 | 129144 | 143049
     13 | 31:47.25 |  2:43.68 | 143050 | 155342
     14 | 34:31.18 |  0:56.72 | 155343 | 159614
     15 | 35:28.15 |  1:07.55 | 159615 | 164694
     16 | 36:35.70 |  2:53.28 | 164695 | 177697
     17 | 39:29.23 |  0:59.22 | 177698 | 182144
     18 | 40:28.45 |  3:31.52 | 182145 | 198021
     19 | 44:00.22 |  1:26.36 | 198022 | 204507
     20 | 45:26.58 |  2:16.48 | 204508 | 214755
     21 | 47:43.31 |  1:48.14 | 214756 | 222869
     22 | 49:31.45 |  2:11.08 | 222870 | 232702
     23 | 51:42.53 |  3:05.43 | 232703 | 246620
     24 | 54:48.21 |  3:12.50 | 246621 | 261070
     25 | 58:00.71 |  3:38.18 | 261071 | 277438

音轨  1
     文件名 G:\天籁传说\CD C\01 音轨01.wav
     峰值电平 90.9 %
     抓取速度 2.7 X
     音轨质量 100.0 %
     复制 CRC 671A4192
     音轨在 AccurateRip 数据库中无记录
     复制成功
音轨  2
     文件名 G:\天籁传说\CD C\02 音轨02.wav
     峰值电平 90.9 %
     抓取速度 3.0 X
     音轨质量 100.0 %
     复制 CRC 6A92ED37
     音轨在 AccurateRip 数据库中无记录
     复制成功
音轨  3
     文件名 G:\天籁传说\CD C\03 音轨03.wav
     峰值电平 90.9 %
     抓取速度 2.6 X
     音轨质量 100.0 %
     复制 CRC 381B5E86
     音轨在 AccurateRip 数据库中无记录
     复制成功
音轨  4
     文件名 G:\天籁传说\CD C\04 音轨04.wav
     峰值电平 90.9 %
     抓取速度 2.7 X
     音轨质量 100.0 %
     复制 CRC 2E9F0140
     音轨在 AccurateRip 数据库中无记录
     复制成功
音轨  5
     文件名 G:\天籁传说\CD C\05 音轨05.wav
     峰值电平 90.9 %
     抓取速度 2.8 X
     音轨质量 100.0 %
     复制 CRC 4E005339
     音轨在 AccurateRip 数据库中无记录
     复制成功
音轨  6
     文件名 G:\天籁传说\CD C\06 音轨06.wav
     峰值电平 90.9 %
     抓取速度 2.6 X
     音轨质量 100.0 %
     复制 CRC 955D6C4C
     音轨在 AccurateRip 数据库中无记录
     复制成功
音轨  7
     文件名 G:\天籁传说\CD C\07 音轨07.wav
     峰值电平 90.9 %
     抓取速度 2.8 X
     音轨质量 100.0 %
     复制 CRC EACC98F5
     音轨在 AccurateRip 数据库中无记录
     复制成功
音轨  8
     文件名 G:\天籁传说\CD C\08 音轨08.wav
     峰值电平 90.9 %
     抓取速度 2.7 X
     音轨质量 100.0 %
     复制 CRC 803EBD29
     音轨在 AccurateRip 数据库中无记录
     复制成功
音轨  9
     文件名 G:\天籁传说\CD C\09 音轨09.wav
     峰值电平 90.9 %
     抓取速度 2.8 X
     音轨质量 100.0 %
     复制 CRC 4BD6E7CC
     音轨在 AccurateRip 数据库中无记录
     复制成功
音轨 10
     文件名 G:\天籁传说\CD C\10 音轨10.wav
     峰值电平 91.1 %
     抓取速度 2.8 X
     音轨质量 100.0 %
     复制 CRC 9538BEAB
     音轨在 AccurateRip 数据库中无记录
     复制成功
音轨 11
     文件名 G:\天籁传说\CD C\11 音轨11.wav
     峰值电平 90.9 %
     抓取速度 2.5 X
     音轨质量 100.0 %
     复制 CRC E4BCC2BA
     音轨在 AccurateRip 数据库中无记录
     复制成功
音轨 12
     文件名 G:\天籁传说\CD C\12 音轨12.wav
     峰值电平 90.9 %
     抓取速度 2.8 X
     音轨质量 100.0 %
     复制 CRC A1DC4F32
     音轨在 AccurateRip 数据库中无记录
     复制成功
音轨 13
     文件名 G:\天籁传说\CD C\13 音轨13.wav
     峰值电平 90.9 %
     抓取速度 2.8 X
     音轨质量 100.0 %
     复制 CRC 14F22127
     音轨在 AccurateRip 数据库中无记录
     复制成功
音轨 14
     文件名 G:\天籁传说\CD C\14 音轨14.wav
     峰值电平 90.6 %
     抓取速度 1.9 X
     音轨质量 100.0 %
     复制 CRC 2A1CE448
     音轨在 AccurateRip 数据库中无记录
     复制成功
音轨 15
     文件名 G:\天籁传说\CD C\15 音轨15.wav
     峰值电平 90.9 %
     抓取速度 2.1 X
     音轨质量 100.0 %
     复制 CRC 673A87A8
     音轨在 AccurateRip 数据库中无记录
     复制成功
音轨 16
     文件名 G:\天籁传说\CD C\16 音轨16.wav
     峰值电平 90.9 %
     抓取速度 2.7 X
     音轨质量 100.0 %
     复制 CRC C50A3B65
     音轨在 AccurateRip 数据库中无记录
     复制成功
音轨 17
     文件名 G:\天籁传说\CD C\17 音轨17.wav
     峰值电平 90.9 %
     抓取速度 1.8 X
     音轨质量 100.0 %
     复制 CRC 3A45AC1F
     音轨在 AccurateRip 数据库中无记录
     复制成功
音轨 18
     文件名 G:\天籁传说\CD C\18 音轨18.wav
     峰值电平 90.9 %
     抓取速度 2.9 X
     音轨质量 100.0 %
     复制 CRC F9531D20
     音轨在 AccurateRip 数据库中无记录
     复制成功
音轨 19
     文件名 G:\天籁传说\CD C\19 音轨19.wav
     峰值电平 90.9 %
     抓取速度 2.3 X
     音轨质量 100.0 %
     复制 CRC 6D13AF0F
     音轨在 AccurateRip 数据库中无记录
     复制成功
音轨 20
     文件名 G:\天籁传说\CD C\20 音轨20.wav
     峰值电平 90.9 %
     抓取速度 2.6 X
     音轨质量 100.0 %
     复制 CRC 03D1DD4E
     音轨在 AccurateRip 数据库中无记录
     复制成功
音轨 21
     文件名 G:\天籁传说\CD C\21 音轨21.wav
     峰值电平 91.1 %
     抓取速度 2.5 X
     音轨质量 100.0 %
     复制 CRC CC8003C0
     音轨在 AccurateRip 数据库中无记录
     复制成功
音轨 22
     文件名 G:\天籁传说\CD C\22 音轨22.wav
     峰值电平 90.9 %
     抓取速度 2.6 X
     音轨质量 100.0 %
     复制 CRC 83BDEEAB
     音轨在 AccurateRip 数据库中无记录
     复制成功
音轨 23
     文件名 G:\天籁传说\CD C\23 音轨23.wav
     峰值电平 90.9 %
     抓取速度 2.8 X
     音轨质量 100.0 %
     复制 CRC EF057D02
     音轨在 AccurateRip 数据库中无记录
     复制成功
音轨 24
     文件名 G:\天籁传说\CD C\24 音轨24.wav
     峰值电平 90.9 %
     抓取速度 2.8 X
     音轨质量 100.0 %
     复制 CRC A48739B6
     音轨在 AccurateRip 数据库中无记录
     复制成功
音轨 25
     文件名 G:\天籁传说\CD C\25 音轨25.wav
     峰值电平 90.9 %
     抓取速度 2.9 X
     音轨质量 100.0 %
     复制 CRC E2CBB53F
     音轨在 AccurateRip 数据库中无记录
     复制成功

没有任何音轨在 AccurateRip 数据库中有记录
没有错误发生
状态报告结尾
---- CUETools DB Plugin V2.1.6
[CTDB TOCID: mKttOusOWEeNp9ophp3QWRC2Ifc-] disk not present in database
Submit result: mKttOusOWEeNp9ophp3QWRC2Ifc- has been uploaded

CD D:
Exact Audio Copy V1.1 from 23. June 2015
EAC 抓取日志文件从24. 十一月 2016, 14:39
未知艺术家 / 未知标题
使用驱动器  :SONY    CD-RW  CRX230E   Adapter: 1  ID: 1
读取模式      : 可靠Secure
使用精确流     : 是
清空音频缓存    : 是
使用 C2 指示器 : 是
读取偏移校正:               : 6
读取 Lead-In 和 Lead-Out : 否
用静音填充抓取中丢失偏移的采样       : 是
去除首尾静音块               : 否
在CRC 计算中使用了空样本       : 是
已用接口                  : Win NT 及 2000 本地 Win32 接口
间隙处理                  : 没检测到,因此追加到上一曲目
所用输出模式: : 内部 WAV 函数
样本格式    : 44.100 Hz; 16 Bit; 立体声

已抓取 CD 的 TOC
     音轨 |    起始    |    长度    |  起始扇区  |  结束扇区  
    --------------------------------------------
      1 |  0:00.00 |  1:19.60 |      0 |   5984
      2 |  1:19.60 |  3:37.66 |   5985 |  22325
      3 |  4:57.51 |  3:29.63 |  22326 |  38063
      4 |  8:27.39 |  4:23.43 |  38064 |  57831
      5 | 12:51.07 |  2:43.23 |  57832 |  70079
      6 | 15:34.30 |  3:46.67 |  70080 |  87096
      7 | 19:21.22 |  1:58.27 |  87097 |  95973
      8 | 21:19.49 |  2:09.34 |  95974 | 105682
      9 | 23:29.08 |  2:21.10 | 105683 | 116267
     10 | 25:50.18 |  3:14.14 | 116268 | 130831
     11 | 29:04.32 |  3:16.44 | 130832 | 145575
     12 | 32:21.01 |  3:23.23 | 145576 | 160823
     13 | 35:44.24 |  4:55.09 | 160824 | 182957
     14 | 40:39.33 |  2:31.65 | 182958 | 194347
     15 | 43:11.23 |  4:22.30 | 194348 | 214027
     16 | 47:33.53 |  1:09.20 | 214028 | 219222
     17 | 48:42.73 |  2:45.63 | 219223 | 231660
     18 | 51:28.61 |  7:22.34 | 231661 | 264844
     19 | 58:51.20 |  5:50.69 | 264845 | 291163
     20 | 64:42.14 |  3:21.10 | 291164 | 306248
     21 | 68:03.24 |  2:10.14 | 306249 | 316012
     22 | 70:13.38 |  1:32.23 | 316013 | 322935

音轨  1
     文件名 G:\天籁传说\CD D\01 音轨01.wav
     峰值电平 90.9 %
     抓取速度 3.9 X
     音轨质量 100.0 %
     复制 CRC 4ECBD677
     音轨在 AccurateRip 数据库中无记录
     复制成功
音轨  2
     文件名 G:\天籁传说\CD D\02 音轨02.wav
     峰值电平 79.1 %
     抓取速度 2.8 X
     音轨质量 100.0 %
     复制 CRC F20FB4DC
     音轨在 AccurateRip 数据库中无记录
     复制成功
音轨  3
     文件名 G:\天籁传说\CD D\03 音轨03.wav
     峰值电平 91.0 %
     抓取速度 2.9 X
     音轨质量 100.0 %
     复制 CRC E26BEA1D
     音轨在 AccurateRip 数据库中无记录
     复制成功
音轨  4
     文件名 G:\天籁传说\CD D\04 音轨04.wav
     峰值电平 90.7 %
     抓取速度 3.1 X
     音轨质量 100.0 %
     复制 CRC 33DBF673
     音轨在 AccurateRip 数据库中无记录
     复制成功
音轨  5
     文件名 G:\天籁传说\CD D\05 音轨05.wav
     峰值电平 91.5 %
     抓取速度 2.8 X
     音轨质量 100.0 %
     复制 CRC 0DC0CE7D
     音轨在 AccurateRip 数据库中无记录
     复制成功
音轨  6
     文件名 G:\天籁传说\CD D\06 音轨06.wav
     峰值电平 91.5 %
     抓取速度 1.9 X
     音轨质量 99.9 %
     复制 CRC 2E1C677B
     音轨在 AccurateRip 数据库中无记录
     复制成功
音轨  7
     文件名 G:\天籁传说\CD D\07 音轨07.wav
     峰值电平 91.1 %
     抓取速度 2.5 X
     音轨质量 100.0 %
     复制 CRC 3C6AD1BE
     音轨在 AccurateRip 数据库中无记录
     复制成功
音轨  8
     文件名 G:\天籁传说\CD D\08 音轨08.wav
     峰值电平 90.9 %
     抓取速度 2.6 X
     音轨质量 100.0 %
     复制 CRC 163F84B7
     音轨在 AccurateRip 数据库中无记录
     复制成功
音轨  9
     文件名 G:\天籁传说\CD D\09 音轨09.wav
     峰值电平 90.9 %
     抓取速度 1.4 X
     音轨质量 99.8 %
     复制 CRC 0E55E506
     音轨在 AccurateRip 数据库中无记录
     复制成功
音轨 10
     文件名 G:\天籁传说\CD D\10 音轨10.wav
     峰值电平 91.3 %
     抓取速度 2.9 X
     音轨质量 100.0 %
     复制 CRC 4DBCF752
     音轨在 AccurateRip 数据库中无记录
     复制成功
音轨 11
     文件名 G:\天籁传说\CD D\11 音轨11.wav
     峰值电平 91.4 %
     抓取速度 2.9 X
     音轨质量 100.0 %
     复制 CRC B546A0F9
     音轨在 AccurateRip 数据库中无记录
     复制成功
音轨 12
     文件名 G:\天籁传说\CD D\12 音轨12.wav
     峰值电平 90.9 %
     抓取速度 1.8 X
     音轨质量 99.8 %
     复制 CRC 9D74D500
     音轨在 AccurateRip 数据库中无记录
     复制成功
音轨 13
     文件名 G:\天籁传说\CD D\13 音轨13.wav
     峰值电平 90.9 %
     抓取速度 3.1 X
     音轨质量 100.0 %
     复制 CRC 62BEE159
     音轨在 AccurateRip 数据库中无记录
     复制成功
音轨 14
     文件名 G:\天籁传说\CD D\14 音轨14.wav
     峰值电平 100.0 %
     抓取速度 2.7 X
     音轨质量 100.0 %
     复制 CRC BACEE70A
     音轨在 AccurateRip 数据库中无记录
     复制成功
音轨 15
     文件名 G:\天籁传说\CD D\15 音轨15.wav
     峰值电平 90.9 %
     抓取速度 3.0 X
     音轨质量 100.0 %
     复制 CRC 6FBBBDC7
     音轨在 AccurateRip 数据库中无记录
     复制成功
音轨 16
     文件名 G:\天籁传说\CD D\16 音轨16.wav
     峰值电平 90.9 %
     抓取速度 2.1 X
     音轨质量 100.0 %
     复制 CRC A1558481
     音轨在 AccurateRip 数据库中无记录
     复制成功
音轨 17
     文件名 G:\天籁传说\CD D\17 音轨17.wav
     峰值电平 90.9 %
     抓取速度 2.8 X
     音轨质量 100.0 %
     复制 CRC 2796B6E0
     音轨在 AccurateRip 数据库中无记录
     复制成功
音轨 18
     文件名 G:\天籁传说\CD D\18 音轨18.wav
     峰值电平 90.9 %
     抓取速度 3.3 X
     音轨质量 100.0 %
     复制 CRC 8B5DF6F6
     音轨在 AccurateRip 数据库中无记录
     复制成功
音轨 19
     文件名 G:\天籁传说\CD D\19 音轨19.wav
     峰值电平 90.9 %
     抓取速度 3.1 X
     音轨质量 100.0 %
     复制 CRC 6D4B7E6E
     音轨在 AccurateRip 数据库中无记录
     复制成功
音轨 20
     文件名 G:\天籁传说\CD D\20 音轨20.wav
     峰值电平 90.9 %
     抓取速度 2.9 X
     音轨质量 100.0 %
     复制 CRC FE317C93
     音轨在 AccurateRip 数据库中无记录
     复制成功
音轨 21
     文件名 G:\天籁传说\CD D\21 音轨21.wav
     峰值电平 91.2 %
     抓取速度 2.6 X
     音轨质量 100.0 %
     复制 CRC C83F2F2E
     音轨在 AccurateRip 数据库中无记录
     复制成功
音轨 22
     文件名 G:\天籁传说\CD D\22 音轨22.wav
     峰值电平 91.2 %
     抓取速度 2.3 X
     音轨质量 100.0 %
     复制 CRC 176C3DCE
     音轨在 AccurateRip 数据库中无记录
     复制成功

没有任何音轨在 AccurateRip 数据库中有记录
没有错误发生
状态报告结尾
---- CUETools DB Plugin V2.1.6
[CTDB TOCID: 1jFDneqUYaWg11S6NJUjPxW3fLw-] disk not present in database
Submit result: 1jFDneqUYaWg11S6NJUjPxW3fLw- has been uploaded

链接:
游客,如果您要查看本帖隐藏内容请回复
  密码:
游客,如果您要查看本帖隐藏内容请回复

解压密码:www.cdbao.net
第2、3、4张CD的曲目我就不打了,太累人啦。我拍了照片,大家喜欢的可以自己修改:


CD B

CD B

CD C

CD C

CD D

CD D
IMG_20161124_202428_1_1.jpg
IMG_20161124_202521_1.jpg

评分

参与人数 1CD +400 收起 理由
最终之战 + 400 感谢分享资源,CD包因你而精彩.

查看全部评分




上一篇:原抓 最终幻想 8《Final Fantasy VIII Original Soundtrack》WAV/百度
下一篇:原抓 《最终幻想 水晶旋律》 WAV/分轨/度盘

0

主题

43

帖子

92

积分

新人会员,请认真回复,若恶意回复,直接封号

Rank: 1

积分
92
发表于 2016-11-24 22:54:21 | 显示全部楼层
传说系列主题曲一直都不错,感谢

0

主题

355

帖子

940

积分

职业歌手

Rank: 3Rank: 3

积分
940
发表于 2016-11-25 06:29:05 | 显示全部楼层
非常感谢楼主,发帖辛苦了!!!

0

主题

745

帖子

843

积分

职业歌手

Rank: 3Rank: 3

积分
843
发表于 2016-11-29 09:00:26 | 显示全部楼层
IS THE LINK STILL OPEN FOR DOWNLOAD..................?

0

主题

904

帖子

-124

积分

恶意回复被扣没分了,积分增加方法见置顶帖

积分
-124
发表于 2016-11-29 22:35:16 | 显示全部楼层

多谢分享,楼主辛苦了,下来试听。
您需要登录后才可以回帖 登录 | 注册

本版积分规则

快速回复 返回顶部 返回列表