查看: 544|回复: 5

[华语] 原抓:民谣-纣王老胡《昨天》2013/WAV/百度

[复制链接]

3083

主题

4258

帖子

55万

积分

音乐主神

Rank: 10Rank: 10Rank: 10

积分
553397

社区QQ达人精华帖达人分享勋章灌水勋章

发表于 2016-10-8 11:00:11 | 显示全部楼层 |阅读模式

注册会员,获得无损资源下载地址,享受高品质音乐。

您需要 登录 才可以下载或查看,没有帐号?注册

x
本帖最后由 metal 于 2016-10-8 11:01 编辑

QQ截图20161008103242.jpg QQ截图20161008103249.jpg

         胡晓鸣,男,天蝎座,1981年11月5号出生。热爱民谣但有一颗燥热的摇滚之心。不爱出门,不善言语,不爱洗澡,爱吃辣椒。从不杀生,希望冬天的流浪猫狗有个温暖的家。专辑《昨天》,《友谊胡同》..




QQ截图20161008103233.jpg QQ截图20161008103257.jpg QQ截图20161008103314.jpg QQ截图20161008103322.jpg QQ截图20161008103329.jpg QQ截图20161008103339.jpg QQ截图20161008103349.jpg QQ截图20161008103357.jpg



艺人:纣王老胡
语言:普通话
专辑:《昨天》
发行时间:2013年


专辑曲目:

1:涩
2:离散
3:噩梦成真
4:你我同在
5:磨剪子锵菜刀
6:无能为力
7:十字路口
8:文艺青年
9:眼泪
10:陌生兄弟
11:那个喝醉的夜晚挡不住我们的步伐
12:我可以提前离开


-------------------------------------------------------------------------------------------------------------------------------- QQ截图20161008103755.jpg
00.jpg


Exact Audio Copy V1.3 from 2. September 2016

EAC 抓取日志文件从8. 十月 2016, 9:15

未知艺术家 / 未知标题

使用驱动器  :PIONEER DVD-RW  DVR-220L   Adapter: 1  ID: 0

读取模式 : 暴发

读取偏移校正:               : 0
读取 Lead-In 和 Lead-Out : 否
用静音填充抓取中丢失偏移的采样       : 是
去除首尾静音块               : 否
在CRC 计算中使用了空样本       : 是
已用接口                  : Win NT 及 2000 本地 Win32 接口
间隙处理                  : 没检测到,因此追加到上一曲目

所用输出模式: : 内部 WAV 函数
样本格式    : 44.100 Hz; 16 Bit; 立体声


已抓取 CD 的 TOC

     音轨 |    起始    |    长度    |  起始扇区  |  结束扇区  
    --------------------------------------------
      1 |  0:00.00 |  5:15.72 |      0 |  23696
      2 |  5:15.72 |  4:29.05 |  23697 |  43876
      3 |  9:45.02 |  4:14.31 |  43877 |  62957
      4 | 13:59.33 |  4:08.20 |  62958 |  81577
      5 | 18:07.53 |  4:52.22 |  81578 | 103499
      6 | 23:00.00 |  4:16.01 | 103500 | 122700
      7 | 27:16.01 |  4:25.27 | 122701 | 142602
      8 | 31:41.28 |  3:38.04 | 142603 | 158956
      9 | 35:19.32 |  4:36.50 | 158957 | 179706
     10 | 39:56.07 |  5:05.17 | 179707 | 202598
     11 | 45:01.24 |  4:06.47 | 202599 | 221095
     12 | 49:07.71 |  3:05.05 | 221096 | 234975


音轨  1

     文件名 C:\Users\Administrator\Desktop\纣王老胡-昨天\01 音轨01.wav

     计时问题 0:00:03
     计时问题 0:00:06 - 0:00:07
     计时问题 0:02:21

     峰值电平 100.0 %
     抓取速度 10.4 X
     复制 CRC 5F6DD299
     复制结束

音轨  2

     文件名 C:\Users\Administrator\Desktop\纣王老胡-昨天\02 音轨02.wav

     峰值电平 100.0 %
     抓取速度 19.5 X
     复制 CRC D3F7A2B4
     复制成功

音轨  3

     文件名 C:\Users\Administrator\Desktop\纣王老胡-昨天\03 音轨03.wav

     峰值电平 97.7 %
     抓取速度 21.3 X
     复制 CRC BFF81A9B
     复制成功

音轨  4

     文件名 C:\Users\Administrator\Desktop\纣王老胡-昨天\04 音轨04.wav

     峰值电平 97.7 %
     抓取速度 22.8 X
     复制 CRC 33F502AE
     复制成功

音轨  5

     文件名 C:\Users\Administrator\Desktop\纣王老胡-昨天\05 音轨05.wav

     峰值电平 97.7 %
     抓取速度 24.4 X
     复制 CRC B6BA6051
     复制成功

音轨  6

     文件名 C:\Users\Administrator\Desktop\纣王老胡-昨天\06 音轨06.wav

     峰值电平 97.7 %
     抓取速度 25.9 X
     复制 CRC C89CDCD7
     复制成功

音轨  7

     文件名 C:\Users\Administrator\Desktop\纣王老胡-昨天\07 音轨07.wav

     峰值电平 97.7 %
     抓取速度 27.3 X
     复制 CRC CD3452C3
     复制成功

音轨  8

     文件名 C:\Users\Administrator\Desktop\纣王老胡-昨天\08 音轨08.wav

     峰值电平 97.7 %
     抓取速度 28.5 X
     复制 CRC 726C5C4E
     复制成功

音轨  9

     文件名 C:\Users\Administrator\Desktop\纣王老胡-昨天\09 音轨09.wav

     峰值电平 97.7 %
     抓取速度 29.7 X
     复制 CRC 36844975
     复制成功

音轨 10

     文件名 C:\Users\Administrator\Desktop\纣王老胡-昨天\10 音轨10.wav

     峰值电平 97.7 %
     抓取速度 31.0 X
     复制 CRC 054B50F0
     复制成功

音轨 11

     文件名 C:\Users\Administrator\Desktop\纣王老胡-昨天\11 音轨11.wav

     峰值电平 97.7 %
     抓取速度 32.2 X
     复制 CRC C6E1755C
     复制成功

音轨 12

     文件名 C:\Users\Administrator\Desktop\纣王老胡-昨天\12 音轨12.wav

     峰值电平 97.7 %
     抓取速度 33.0 X
     复制 CRC F9C49D63
     复制成功

没有错误发生

状态报告结尾

---- CUETools DB Plugin V2.1.6

[CTDB TOCID: IzPjx3.T_mO8bm1qjbK5kl56tgc-] disk not present in database
Submit result: insufficient quality



游客,如果您要查看本帖隐藏内容请回复


评分

参与人数 1CD +240 包子 +5 收起 理由
最终之战 + 240 + 5 感谢分享资源,CD包因你而精彩.

查看全部评分




上一篇:宇多田光《Fantôme》日版/FLAC/度盘
下一篇:飞鱼原抓:Britney Spears《Britney Jean(Deluxe Edition)》2013 整轨WAV...

0

主题

42

帖子

121

积分

新人会员,请认真回复,若恶意回复,直接封号

Rank: 1

积分
121

社区QQ达人

发表于 2016-10-8 11:14:14 | 显示全部楼层
应该不错,谢谢分享

264

主题

732

帖子

3万

积分

天王巨星

Rank: 7Rank: 7Rank: 7

积分
37039

社区QQ达人灌水勋章分享勋章

发表于 2016-10-8 23:30:11 | 显示全部楼层
兄弟辛苦了  爱死你啦 嘻嘻 还不够字数

128

主题

638

帖子

3万

积分

天王巨星

Rank: 7Rank: 7Rank: 7

积分
32043
发表于 2016-10-12 15:46:31 | 显示全部楼层
对你爱爱爱不完
我可以天天月月年年到永远
 成长值: 570

0

主题

41

帖子

134

积分

VIP1

Rank: 4

积分
134
发表于 2016-10-16 15:27:26 | 显示全部楼层
这就是我最喜欢的专辑~~~没人比我更喜欢了~~
 成长值: 250

75

主题

808

帖子

1万

积分

VIP1

Rank: 4

积分
11647
发表于 2016-11-16 13:46:16 | 显示全部楼层
支持国产,谢谢metal哥分享!!
您需要登录后才可以回帖 登录 | 注册

本版积分规则

快速回复 返回顶部 返回列表