论坛广告

CD包论坛导航

CD包|聊天灌水,新人报到
聊天灌水,会员生活音乐推荐,乐评资讯CD帮-积分索求音乐资源新人报到,版规学习
CD包|音乐知识,刻录交流
音频知识,播放器交流刻录讨论,软件教程发烧设备-音箱耳机声卡CD包 - 合作商家包子 积分兑换HIFIMAN 头领科技
CD包|精选原抓资源下载
CD荐-自制推荐精选集原抓CD无损专辑发布
CD包|稀有无损音乐资源
稀有音乐资源稀有视频资源黑胶音乐母带音乐
CD包|无损音乐CD打包下载
华语无损音乐专辑欧美无损音乐专辑日韩无损音乐专辑古典无损音乐专辑发烧试音无损专辑无损单曲下载
CD包|高音质音乐专辑下载
320KMP3 高音质专辑下载 iTunes Plus AAC 下载摇滚金属专辑下载DJ,Disco,House,Dance,Trance等下载汽车音乐CD胎教及儿童音乐原声,纯音,器乐及其他高清MV,演唱会,综艺
CD包|ACG无损音乐下载
ACG游戏无损音乐下载ACG动画无损音乐下载
CD包|网站站内交流
失效回收站务公开
CD包|网站管理专版
管理组 - 管理人员交流版块小黑屋 - 负分用户升级转正版块
查看: 396|回复: 4

荷兰流行:André Hazes Jr.《Leef》2016/FLAC/BD

[复制链接]
 成长值: 22650

7966

主题

1万

帖子

10万

积分

音乐掌门人

Rank: 20Rank: 20Rank: 20Rank: 20Rank: 20

积分
100899

名人勋章社区QQ达人分享勋章精华帖达人灌水勋章

发表于 2016-9-30 09:23:05 | 显示全部楼层 |阅读模式

注册会员,获得无损资源下载地址,享受高品质音乐。

您需要 登录 才可以下载或查看,没有帐号?注册

x
Front.jpg
folder.jpg
Back.jpg
CD.jpg

André Hazes Jr. / Leef

Жанр: Dutch Pop
Носитель: CD
Страна-производитель диска (релиза): EU
Год издания: 2016
Издатель (лейбл): Dino Music
Номер по каталогу: 478.320-5
Страна исполнителя (группы): NL
Аудиокодек: FLAC (*.flac)
Тип рипа: image+.cue
Битрейт аудио: lossless
Продолжительность: 00:42:26


01.Leef (3:39)
02. Niet Voor Lief (3:25)
03. Voor Altijd In Mijn Hart (3:11)
04. Ik Leef Mijn Eigen Leven (4:53)
05. Wat Is De Waarheid (2:32)
06. He Ouwe (3:09)
07. Als Jij Dat Wilt (2:59)
08. Weet Dat Je Welkom Bent (3:51)
09. Dit Is Voor Altijd (4:02)
10. De Laatste Keer (3:37)
11. In Het Holst Van De Nacht (Titelsong Baantje Live2) (3:41)
12. De Stilte (Uit Holland Zing) (3:29)


Exact Audio Copy V1.1 from 23. June 2015
EAC extraction logfile from 12. March 2016, 16:27
Andre Hazes Jr / Leef
Used drive  : HL-DT-STDVDRAM GH24NSD1   Adapter: 0  ID: 0
Read mode               : Secure
Utilize accurate stream : Yes
Defeat audio cache      : Yes
Make use of C2 pointers : No
Read offset correction                      : 6
Overread into Lead-In and Lead-Out          : No
Fill up missing offset samples with silence : Yes
Delete leading and trailing silent blocks   : No
Null samples used in CRC calculations       : Yes
Used interface                              : Installed external ASPI interface
Used output format : Internal WAV Routines
Sample format      : 44.100 Hz; 16 Bit; Stereo
TOC of the extracted CD
     Track |   Start  |  Length  | Start sector | End sector
    ---------------------------------------------------------
        1  |  0:00.00 |  3:39.02 |         0    |    16426
        2  |  3:39.02 |  3:25.12 |     16427    |    31813
        3  |  7:04.14 |  3:11.04 |     31814    |    46142
        4  | 10:15.18 |  4:52.62 |     46143    |    68104
        5  | 15:08.05 |  2:32.21 |     68105    |    79525
        6  | 17:40.26 |  3:08.41 |     79526    |    93666
        7  | 20:48.67 |  2:59.03 |     93667    |   107094
        8  | 23:47.70 |  3:50.43 |    107095    |   124387
        9  | 27:38.38 |  4:01.53 |    124388    |   142515
       10  | 31:40.16 |  3:36.52 |    142516    |   158767
       11  | 35:16.68 |  3:41.18 |    158768    |   175360
       12  | 38:58.11 |  3:28.62 |    175361    |   191022
Range status and errors
Selected range
     Filename E:\SPOT NIEUW\Andre Hazes Jr - Leef (EAC)\Andre Hazes Jr - Leef.wav
     Peak level 100.0 %
     Extraction speed 6.7 X
     Range quality 100.0 %
     Test CRC 759979E8
     Copy CRC 759979E8
     Copy OK
No errors occurred
AccurateRip summary
Track  1  not present in database
Track  2  not present in database
Track  3  not present in database
Track  4  not present in database
Track  5  not present in database
Track  6  not present in database
Track  7  not present in database
Track  8  not present in database
Track  9  not present in database
Track 10  not present in database
Track 11  not present in database
Track 12  not present in database
None of the tracks are present in the AccurateRip database
End of status report

==========================
百度下载(音乐共享精神)
游客,如果您要查看本帖隐藏内容请回复
来自群组: 欧美流行



上一篇:梦幻流行自赏氛围:Mint Julep《7CD》2008-2016/FLAC/BD
下一篇:电子流行舞曲:Hardwell&Jake Reese《Mad World - The Remixes》2016/FLAC/BD

本人发布的资源,有密码的话都是:www.cdbao.net
关于链接失效的说明(度盘好友分享的说明)
http://www.cdbao.net/thread-117499-1-1.html     
紧急通告:115,快传等网盘取消了分享功能礼包码链接全部失效
http://www.cdbao.net/thread-122759-1-1.html

0

主题

56

帖子

85

积分

新人会员,请认真回复,若恶意回复,直接封号

Rank: 1

积分
85

社区QQ达人

发表于 2016-9-30 11:09:55 | 显示全部楼层
荷兰流行没听过 下载看看 感谢分享了

1

主题

4248

帖子

4477

积分

人气天王

Rank: 5Rank: 5

积分
4477

社区QQ达人

发表于 2016-10-2 00:17:03 | 显示全部楼层
国内很少见到的专辑,好激动,支持了,谢谢楼主

0

主题

24

帖子

30

积分

新人会员,请认真回复,若恶意回复,直接封号

Rank: 1

积分
30
发表于 2016-10-3 20:31:52 | 显示全部楼层
好人一生平安。。。。。。。。。。。。。。。。。。。。。。。。

0

主题

42

帖子

71

积分

新人会员,请认真回复,若恶意回复,直接封号

Rank: 1

积分
71
发表于 2016-10-18 02:09:08 | 显示全部楼层
z53q
我爱着她
请让哦下载啦
XIAXIA
您需要登录后才可以回帖 登录 | 注册

本版积分规则

快速回复 返回顶部 返回列表