查看: 272|回复: 4

[欧美摇滚] 澳另类摇滚电子后硬核:Hands Like Houses《Dissonants》2016/FLAC/BD

[复制链接]
 成长值: 19575

6466

主题

1万

帖子

8万

积分

音乐掌门人

Rank: 20Rank: 20Rank: 20Rank: 20Rank: 20

积分
83763

名人勋章社区QQ达人分享勋章精华帖达人灌水勋章

发表于 2016-9-29 14:32:08 | 显示全部楼层 |阅读模式

注册会员,获得无损资源下载地址,享受高品质音乐。

您需要 登录 才可以下载或查看,没有帐号?注册

x
Cover.jpg

Hands Like Houses / Dissonants

Жанр: Alternative Rock / Post-Hardcore / Electronic
Носитель: CD
Год издания: 2016
Издатель (лейбл): ℗ Rise Records
Страна исполнителя (группы): Australia
Аудиокодек: FLAC (*.flac)
Тип рипа: tracks+.cue
Битрейт аудио: lossless
Продолжительность: 00:44:56


Треклист:
01. I Am
02. Perspectives
03. Colourblind
04. New Romantics
05. Glasshouse
06. Division Symbols
07. Stillwater
08. Momentary
09. Motion Sickness
10. Degrees of Separation
11. Grey Havens
12. Bloodlines

X Lossless Decoder version 20151214 (149.1)
XLD extraction logfile from 2016-02-22 15:23:00 -0500
Hands Like Houses / Dissonants
Used drive : HL-DT-ST DVDRW  GX50N (revision RR06)
Media type : Pressed CD
Ripper mode             : XLD Secure Ripper
Disable audio cache     : OK for the drive with a cache less than 1375KiB
Make use of C2 pointers : NO
Read offset correction  : 6
Max retry count         : 100
Gap status              : Analyzed, Appended (except HTOA)
TOC of the extracted CD
     Track |   Start  |  Length  | Start sector | End sector
    ---------------------------------------------------------
        1  | 00:00:00 | 04:18:40 |         0    |    19389
        2  | 04:18:40 | 03:57:59 |     19390    |    37223
        3  | 08:16:24 | 03:42:74 |     37224    |    53947
        4  | 11:59:23 | 03:39:13 |     53948    |    70385
        5  | 15:38:36 | 04:20:62 |     70386    |    89947
        6  | 19:59:23 | 03:40:48 |     89948    |   106495
        7  | 23:39:71 | 03:48:55 |    106496    |   123650
        8  | 27:28:51 | 03:14:64 |    123651    |   138264
        9  | 30:43:40 | 03:35:44 |    138265    |   154433
       10  | 34:19:09 | 03:41:04 |    154434    |   171012
       11  | 38:00:13 | 03:43:14 |    171013    |   187751
       12  | 41:43:27 | 03:11:57 |    187752    |   202133
AccurateRip Summary
    Disc not found in AccurateRip DB.
All Tracks
    Album gain               : -11.36 dB
    Peak                     : 0.966187
    Statistics
        Read error                           : 0
        Jitter error (maybe fixed)           : 0
        Retry sector count                   : 0
        Damaged sector count                 : 0
Track 01
    Filename : /Users/Josh/Desktop/Hands Like Houses - Dissonants (2016) [FLAC]/01 I Am.flac
    Pre-gap length : 00:02:00
    Track gain               : -11.77 dB
    Peak                     : 0.966095
    CRC32 hash (test run)    : 135A5E3A
    CRC32 hash               : 135A5E3A
    CRC32 hash (skip zero)   : 763C2B5D
    AccurateRip v1 signature : 1B47B5C2
    AccurateRip v2 signature : F4D3951F
        ->Track not present in AccurateRip database.
    Statistics
        Read error                           : 0
        Jitter error (maybe fixed)           : 0
        Retry sector count                   : 0
        Damaged sector count                 : 0
Track 02
    Filename : /Users/Josh/Desktop/Hands Like Houses - Dissonants (2016) [FLAC]/02 Perspectives.flac
    Track gain               : -10.98 dB
    Peak                     : 0.966187
    CRC32 hash (test run)    : 2A91FB6A
    CRC32 hash               : 2A91FB6A
    CRC32 hash (skip zero)   : C99E6C51
    AccurateRip v1 signature : 7D7B0087
    AccurateRip v2 signature : 7ACC9382
        ->Track not present in AccurateRip database.
    Statistics
        Read error                           : 0
        Jitter error (maybe fixed)           : 0
        Retry sector count                   : 0
        Damaged sector count                 : 0
Track 03
    Filename : /Users/Josh/Desktop/Hands Like Houses - Dissonants (2016) [FLAC]/03 Colourblind.flac
    Track gain               : -11.18 dB
    Peak                     : 0.966064
    CRC32 hash (test run)    : 4D263793
    CRC32 hash               : 4D263793
    CRC32 hash (skip zero)   : BB620F3A
    AccurateRip v1 signature : A40B841A
    AccurateRip v2 signature : BCDCA2E1
        ->Track not present in AccurateRip database.
    Statistics
        Read error                           : 0
        Jitter error (maybe fixed)           : 0
        Retry sector count                   : 0
        Damaged sector count                 : 0
Track 04
    Filename : /Users/Josh/Desktop/Hands Like Houses - Dissonants (2016) [FLAC]/04 New Romantics.flac
    Pre-gap length : 00:01:35
    Track gain               : -10.90 dB
    Peak                     : 0.966064
    CRC32 hash (test run)    : 6A1631D1
    CRC32 hash               : 6A1631D1
    CRC32 hash (skip zero)   : 18F5B5EE
    AccurateRip v1 signature : AD8CC84F
    AccurateRip v2 signature : 9737F8F8
        ->Track not present in AccurateRip database.
    Statistics
        Read error                           : 0
        Jitter error (maybe fixed)           : 0
        Retry sector count                   : 0
        Damaged sector count                 : 0
Track 05
    Filename : /Users/Josh/Desktop/Hands Like Houses - Dissonants (2016) [FLAC]/05 Glasshouse.flac
    Pre-gap length : 00:01:27
    Track gain               : -11.68 dB
    Peak                     : 0.966064
    CRC32 hash (test run)    : 6844B1FC
    CRC32 hash               : 6844B1FC
    CRC32 hash (skip zero)   : 74AAA04B
    AccurateRip v1 signature : 5A2CD4CF
    AccurateRip v2 signature : 40BE3616
        ->Track not present in AccurateRip database.
    Statistics
        Read error                           : 0
        Jitter error (maybe fixed)           : 0
        Retry sector count                   : 0
        Damaged sector count                 : 0
Track 06
    Filename : /Users/Josh/Desktop/Hands Like Houses - Dissonants (2016) [FLAC]/06 Division Symbols.flac
    Track gain               : -11.29 dB
    Peak                     : 0.966064
    CRC32 hash (test run)    : F3339B75
    CRC32 hash               : F3339B75
    CRC32 hash (skip zero)   : 9BB72E69
    AccurateRip v1 signature : BA1230B1
    AccurateRip v2 signature : 8C267CFF
        ->Track not present in AccurateRip database.
    Statistics
        Read error                           : 0
        Jitter error (maybe fixed)           : 0
        Retry sector count                   : 0
        Damaged sector count                 : 0
Track 07
    Filename : /Users/Josh/Desktop/Hands Like Houses - Dissonants (2016) [FLAC]/07 Stillwater.flac
    Track gain               : -11.49 dB
    Peak                     : 0.966064
    CRC32 hash (test run)    : 867E53B3
    CRC32 hash               : 867E53B3
    CRC32 hash (skip zero)   : E32AE139
    AccurateRip v1 signature : E8BBFFE4
    AccurateRip v2 signature : 17979F86
        ->Track not present in AccurateRip database.
    Statistics
        Read error                           : 0
        Jitter error (maybe fixed)           : 0
        Retry sector count                   : 0
        Damaged sector count                 : 0
Track 08
    Filename : /Users/Josh/Desktop/Hands Like Houses - Dissonants (2016) [FLAC]/08 Momentary.flac
    Track gain               : -10.58 dB
    Peak                     : 0.966064
    CRC32 hash (test run)    : BBDD6666
    CRC32 hash               : BBDD6666
    CRC32 hash (skip zero)   : F5DBEFB4
    AccurateRip v1 signature : 3605303D
    AccurateRip v2 signature : 3D5189D8
        ->Track not present in AccurateRip database.
    Statistics
        Read error                           : 0
        Jitter error (maybe fixed)           : 0
        Retry sector count                   : 0
        Damaged sector count                 : 0
Track 09
    Filename : /Users/Josh/Desktop/Hands Like Houses - Dissonants (2016) [FLAC]/09 Motion Sickness.flac
    Track gain               : -11.02 dB
    Peak                     : 0.966064
    CRC32 hash (test run)    : A6174562
    CRC32 hash               : A6174562
    CRC32 hash (skip zero)   : F46EEBB9
    AccurateRip v1 signature : A798B46A
    AccurateRip v2 signature : 92C9FD31
        ->Track not present in AccurateRip database.
    Statistics
        Read error                           : 0
        Jitter error (maybe fixed)           : 0
        Retry sector count                   : 0
        Damaged sector count                 : 0
Track 10
    Filename : /Users/Josh/Desktop/Hands Like Houses - Dissonants (2016) [FLAC]/10 Degrees of Separation.flac
    Track gain               : -10.84 dB
    Peak                     : 0.966064
    CRC32 hash (test run)    : EFF4C298
    CRC32 hash               : EFF4C298
    CRC32 hash (skip zero)   : F92EC44D
    AccurateRip v1 signature : DF30BD81
    AccurateRip v2 signature : 26E5DCFC
        ->Track not present in AccurateRip database.
    Statistics
        Read error                           : 0
        Jitter error (maybe fixed)           : 0
        Retry sector count                   : 0
        Damaged sector count                 : 0
Track 11
    Filename : /Users/Josh/Desktop/Hands Like Houses - Dissonants (2016) [FLAC]/11 Grey Havens.flac
    Track gain               : -10.84 dB
    Peak                     : 0.966064
    CRC32 hash (test run)    : 3C771368
    CRC32 hash               : 3C771368
    CRC32 hash (skip zero)   : B3CEA65C
    AccurateRip v1 signature : 541C9D71
    AccurateRip v2 signature : D535D52E
        ->Track not present in AccurateRip database.
    Statistics
        Read error                           : 0
        Jitter error (maybe fixed)           : 0
        Retry sector count                   : 0
        Damaged sector count                 : 0
Track 12
    Filename : /Users/Josh/Desktop/Hands Like Houses - Dissonants (2016) [FLAC]/12 Bloodlines.flac
    Track gain               : -11.91 dB
    Peak                     : 0.966064
    CRC32 hash (test run)    : BC17C5A4
    CRC32 hash               : BC17C5A4
    CRC32 hash (skip zero)   : 2788C9B0
    AccurateRip v1 signature : 273C0268
    AccurateRip v2 signature : D209A34F
        ->Track not present in AccurateRip database.
    Statistics
        Read error                           : 0
        Jitter error (maybe fixed)           : 0
        Retry sector count                   : 0
        Damaged sector count                 : 0
No errors occurred
End of status report
-----BEGIN XLD SIGNATURE-----
PKBmBU1uSIDSf7pvKU9fuZf43Ea2xBmtpByj9vG.9Ku3BDHnmFJtRv1LaElGg36VGUEKzX9lel3iubt52_eTa7Q_u2ToQS3aDfA7BQa
-----END XLD SIGNATURE-----

==============================
百度下载(最终之战)
游客,如果您要查看本帖隐藏内容请回复
来自群组: 摇滚名人堂



上一篇:另类摇滚情绪核:Taking Back Sunday《Happiness Is》2014/FLAC/BD
下一篇:加拿大死核:Despised Icon《Beast》2016/FLAC/BD
关于链接失效的说明(度盘+115盘+快传 好友分享的说明)
http://www.cdbao.net/thread-117499-1-1.html     
紧急通告:115,快传等网盘取消了分享功能礼包码链接全部失效
http://www.cdbao.net/thread-122759-1-1.html

0

主题

10

帖子

67

积分

新人会员,请认真回复,若恶意回复,直接封号

Rank: 1

积分
67

社区QQ达人

发表于 2016-9-30 03:52:42 | 显示全部楼层

感谢楼主分享,不知会不会喜欢上这类音乐...

0

主题

33

帖子

106

积分

新人会员,请认真回复,若恶意回复,直接封号

Rank: 1

积分
106

社区QQ达人

发表于 2016-9-30 08:20:48 | 显示全部楼层
谢谢分享,谢谢分享,谢谢分享,谢谢分享,谢谢分享,谢谢分享,谢谢分享,谢谢分享

0

主题

18

帖子

110

积分

新人会员,请认真回复,若恶意回复,直接封号

Rank: 1

积分
110
发表于 2016-10-3 00:09:47 | 显示全部楼层
感谢楼主分享 大爱的不行 收藏了

1

主题

4235

帖子

4437

积分

人气天王

Rank: 5Rank: 5

积分
4437

社区QQ达人

发表于 2016-10-6 20:46:48 | 显示全部楼层
找了好久的专辑,终于在这里找到了,大爱,太棒了,支持
您需要登录后才可以回帖 登录 | 注册

本版积分规则

快速回复 返回顶部 返回列表