查看: 303|回复: 5

[MV] Britney Spears feat.G-Eazy《Make Me... 》2016/1080p/MOV/342.1MB/BD

[复制链接] [已阅至4楼]
 成长值: 19575

6461

主题

1万

帖子

8万

积分

音乐掌门人

Rank: 20Rank: 20Rank: 20Rank: 20Rank: 20

积分
83676

名人勋章社区QQ达人分享勋章精华帖达人灌水勋章

发表于 2016-8-27 23:15:54 | 显示全部楼层 |阅读模式

注册会员,获得无损资源下载地址,享受高品质音乐。

您需要 登录 才可以下载或查看,没有帐号?注册

x
1.jpg
2.jpg
3.jpg
4.jpg
5.jpg
6.jpg
7.jpg
thumbs20160827230715.jpg
thumbs20160827230739.jpg

Britney Spears feat. G-Eazy - Make Me...

Жанр: Pop/Hip Hop
Продолжительность: 00:04:51
Год выпуска: 2016
Описание: Любит Britney веселиться на полную катушку. Вот и кастинг горячих парней в новом видео "Make Me..." забавное и романтическое времяпровождение для поп-дивы.
Доп. информация: Файл от Dreamer.
Качество: MasterRip
Разрешение видео/развертка: 1080p
Контейнер: TS
Видео кодек: AVC
Аудио кодек: AAC
Видео: 1920 x 1080 (1.778) at 23.976 fps AVC at 9504 Кбит/сек
Аудио: 2 канала, 48,0 КГц AAC at 320 Кбит/сек

Формат                                   : MPEG-4
Профиль формата                          : QuickTime
Идентификатор кодека                     : qt   2005.03 (qt  )
Размер файла                             : 342 Мбайт
Продолжительность                        : 4 м. 51 с.
Общий поток                              : 9829 Кбит/сек
Библиотека кодирования                   : Apple QuickTime
Media/UUID                               : 8D506095-63A9-4155-9C41-7B5EE51D8C15
Media/History/UUID                       : 44D5E42E-CDF3-4485-9355-6EE17B141F71
Видео
Идентификатор                            : 1
Формат                                   : AVC
Формат/Информация                        : Advanced Video Codec
Профиль формата                          : [email protected]
Параметр CABAC формата                   : Нет
Параметр ReFrames формата                : 2 кадра
Параметр GOP формата                     : N=2
Идентификатор кодека                     : avc1
Идентификатор кодека/Информация          : Advanced Video Coding
Продолжительность                        : 4 м. 51 с.
Битрейт                                  : 9504 Кбит/сек
Ширина                                   : 1920 пикселей
Width_CleanAperture/String               : 1888 пикселей
Высота                                   : 1080 пикселей
Height_CleanAperture/String              : 1062 пикселя
Соотношение сторон                       : 16:9
Режим частоты кадров                     : Постоянный
Частота кадров                           : 23,976 (23976/1000) кадра/сек
Цветовое пространство                    : YUV
Субдискретизация насыщенности            : 4:2:0
Битовая глубина                          : 8 бит
Тип развёртки                            : Прогрессивная
Бит/(Пиксели*Кадры)                      : 0.191
Размер потока                            : 331 Мбайт (97%)
Язык                                     : English
Цветовой диапазон                        : Limited
Основные цвета                           : BT.709
Характеристики трансфера                 : BT.709
Коэффициенты матрицы                     : BT.709
Аудио
Идентификатор                            : 2
Формат                                   : AAC
Формат/Информация                        : Advanced Audio Codec
Профиль формата                          : LC
Идентификатор кодека                     : 40
Продолжительность                        : 4 м. 51 с.
Продолжительность оригинала              : 4 м. 52 с.
Вид битрейта                             : Постоянный
Битрейт                                  : 320 Кбит/сек
Каналы                                   : 2 канала
Расположение каналов                     : Front: L R
Частота                                  : 48,0 КГц
Частота кадров                           : 46,875 кадров/сек (1024 spf)
Метод сжатия                             : С потерями
Размер потока                            : 11,2 Мбайт (3%)
Размер потока оригинала                  : 11,2 Мбайт (3%)
Язык                                     : English
Прочее
Идентификатор                            : 3
Тип                                      : Time code
Формат                                   : QuickTime TC
Продолжительность                        : 4 м. 51 с.
Временной код первого кадра              : 01:00:00:00
Временной код, чередующийся              : Да
Язык                                     : English

==============================
百度下载(音乐共享精神)
游客,如果您要查看本帖隐藏内容请回复
来自群组: 欧美流行



上一篇:Metallica早期经典视频/度盘
下一篇:《ZGXGS》20160826 NO.7/MP4/1080P/BD
关于链接失效的说明(度盘+115盘+快传 好友分享的说明)
http://www.cdbao.net/thread-117499-1-1.html     
紧急通告:115,快传等网盘取消了分享功能礼包码链接全部失效
http://www.cdbao.net/thread-122759-1-1.html

0

主题

160

帖子

708

积分

职业歌手

Rank: 3Rank: 3

积分
708
发表于 2016-8-28 20:53:40 | 显示全部楼层
这个一定要看啊,很不错啊,支持啊

0

主题

72

帖子

157

积分

乐坛新星

Rank: 2

积分
157
发表于 2016-8-29 22:57:53 | 显示全部楼层
很不错啊,支持啊

3017

主题

3119

帖子

4万

积分

音乐制作人

Rank: 12Rank: 12Rank: 12

积分
49720
发表于 2016-9-8 21:36:49 | 显示全部楼层
这首歌原版MV被扼杀了好可惜
管理员已阅至此楼
 成长值: 540

0

主题

276

帖子

1215

积分

VIP1

Rank: 4

积分
1215
发表于 2016-9-21 22:46:01 | 显示全部楼层
这是极好的资源呀

0

主题

72

帖子

161

积分

乐坛新星

Rank: 2

积分
161
发表于 2016-11-10 16:04:48 | 显示全部楼层
感谢楼主分享,下载收藏了
您需要登录后才可以回帖 登录 | 注册

本版积分规则

快速回复 返回顶部 返回列表