查看: 940|回复: 17

另类流行摇滚电子女声:PVRIS《White Noise》2016豪华版/FLAC/BD

[复制链接] [已阅至10楼]
 成长值: 19650

6540

主题

1万

帖子

8万

积分

音乐掌门人

Rank: 20Rank: 20Rank: 20Rank: 20Rank: 20

积分
84397

名人勋章社区QQ达人分享勋章精华帖达人灌水勋章

发表于 2016-7-14 15:13:38 | 显示全部楼层 |阅读模式

注册会员,获得无损资源下载地址,享受高品质音乐。

您需要 登录 才可以下载或查看,没有帐号?注册

x
Cover.jpg

艺人:         PVRIS
语种:         英语
唱片公司:         华纳唱片
发行时间:         2014年10月31日
专辑类别:         录音室专辑

01. You And I (4:31)

02. Empty (3:27)
03. Smoke (3:05)
04. St. Patrick (4:21)
05. My House (4:03)
06. Holy (4:56)
07. White Noise (4:22)
08. Fire (3:49)
09. Eyelids (5:07)
10. Mirrors (3:24)
11. Ghosts (3:40)
12. Let Them In (3:32)
13. You And I (Stripped) (4:55)

X Lossless Decoder version 20151214 (149.1)
XLD extraction logfile from 2016-04-18 16:25:42 -0500
Pvris / White Noise [Deluxe Edition]
Used drive : HL-DT-ST BD-RE BP50NB40 (revision 1.00)
Media type : Pressed CD
Ripper mode             : XLD Secure Ripper
Disable audio cache     : OK for the drive with a cache less than 1375KiB
Make use of C2 pointers : NO
Read offset correction  : 6
Max retry count         : 20
Gap status              : Analyzed, Appended (except HTOA)
TOC of the extracted CD
     Track |   Start  |  Length  | Start sector | End sector
    ---------------------------------------------------------
        1  | 00:00:00 | 04:30:74 |         0    |    20323
        2  | 04:30:74 | 03:26:38 |     20324    |    35811
        3  | 07:57:37 | 03:05:05 |     35812    |    49691
        4  | 11:02:42 | 04:20:58 |     49692    |    69249
        5  | 15:23:25 | 04:02:42 |     69250    |    87441
        6  | 19:25:67 | 04:55:49 |     87442    |   109615
        7  | 24:21:41 | 04:22:31 |    109616    |   129296
        8  | 28:43:72 | 03:49:07 |    129297    |   146478
        9  | 32:33:04 | 05:07:05 |    146479    |   169508
       10  | 37:40:09 | 03:24:07 |    169509    |   184815
       11  | 41:04:16 | 03:40:10 |    184816    |   201325
       12  | 44:44:26 | 03:32:24 |    201326    |   217249
       13  | 48:16:50 | 04:54:42 |    217250    |   239341
AccurateRip Summary
    Disc not found in AccurateRip DB.
All Tracks
    Album gain               : -8.16 dB
    Peak                     : 1.000000
    Statistics
        Read error                           : 0
        Jitter error (maybe fixed)           : 0
        Retry sector count                   : 0
        Damaged sector count                 : 0
Track 01
    Filename : /Users/rcskater1/Desktop/PVRIS - White Noise [Deluxe Edition] (2016) [CD FLAC]/01 Pvris - You And I.flac
    Pre-gap length : 00:02:00
    Track gain               : -9.27 dB
    Peak                     : 0.994049
    CRC32 hash (test run)    : B591AB0B
    CRC32 hash               : B591AB0B
    CRC32 hash (skip zero)   : 674D7218
    AccurateRip v1 signature : 31B52EDF
    AccurateRip v2 signature : C8850E7D
        ->Track not present in AccurateRip database.
    Statistics
        Read error                           : 0
        Jitter error (maybe fixed)           : 0
        Retry sector count                   : 0
        Damaged sector count                 : 0
Track 02
    Filename : /Users/rcskater1/Desktop/PVRIS - White Noise [Deluxe Edition] (2016) [CD FLAC]/02 Pvris - Empty.flac
    Track gain               : -7.72 dB
    Peak                     : 0.994019
    CRC32 hash (test run)    : 48FCF71F
    CRC32 hash               : 48FCF71F
    CRC32 hash (skip zero)   : 1EE9FD46
    AccurateRip v1 signature : 53CF590A
    AccurateRip v2 signature : 5AB10A2B
        ->Track not present in AccurateRip database.
    Statistics
        Read error                           : 0
        Jitter error (maybe fixed)           : 0
        Retry sector count                   : 0
        Damaged sector count                 : 0
Track 03
    Filename : /Users/rcskater1/Desktop/PVRIS - White Noise [Deluxe Edition] (2016) [CD FLAC]/03 Pvris - Smoke.flac
    Track gain               : -7.50 dB
    Peak                     : 0.999969
    CRC32 hash (test run)    : A4AA5D0D
    CRC32 hash               : A4AA5D0D
    CRC32 hash (skip zero)   : 6B76F98E
    AccurateRip v1 signature : 662427B3
    AccurateRip v2 signature : 9BB755BC
        ->Track not present in AccurateRip database.
    Statistics
        Read error                           : 0
        Jitter error (maybe fixed)           : 0
        Retry sector count                   : 0
        Damaged sector count                 : 0
Track 04
    Filename : /Users/rcskater1/Desktop/PVRIS - White Noise [Deluxe Edition] (2016) [CD FLAC]/04 Pvris - St. Patrick.flac
    Track gain               : -7.28 dB
    Peak                     : 1.000000
    CRC32 hash (test run)    : 4B00948A
    CRC32 hash               : 4B00948A
    CRC32 hash (skip zero)   : 846725D7
    AccurateRip v1 signature : D92EB26E
    AccurateRip v2 signature : 48BDD5C0
        ->Track not present in AccurateRip database.
    Statistics
        Read error                           : 0
        Jitter error (maybe fixed)           : 0
        Retry sector count                   : 0
        Damaged sector count                 : 0
Track 05
    Filename : /Users/rcskater1/Desktop/PVRIS - White Noise [Deluxe Edition] (2016) [CD FLAC]/05 Pvris - My House.flac
    Track gain               : -8.75 dB
    Peak                     : 1.000000
    CRC32 hash (test run)    : DD0EFD3E
    CRC32 hash               : DD0EFD3E
    CRC32 hash (skip zero)   : CA312B4D
    AccurateRip v1 signature : D2002CF9
    AccurateRip v2 signature : E0E442EA
        ->Track not present in AccurateRip database.
    Statistics
        Read error                           : 0
        Jitter error (maybe fixed)           : 0
        Retry sector count                   : 0
        Damaged sector count                 : 0
Track 06
    Filename : /Users/rcskater1/Desktop/PVRIS - White Noise [Deluxe Edition] (2016) [CD FLAC]/06 Pvris - Holy.flac
    Track gain               : -6.73 dB
    Peak                     : 0.997406
    CRC32 hash (test run)    : 9DBD4D12
    CRC32 hash               : 9DBD4D12
    CRC32 hash (skip zero)   : 173BA63A
    AccurateRip v1 signature : D9B6C3DF
    AccurateRip v2 signature : 32DCC38E
        ->Track not present in AccurateRip database.
    Statistics
        Read error                           : 0
        Jitter error (maybe fixed)           : 0
        Retry sector count                   : 0
        Damaged sector count                 : 0
Track 07
    Filename : /Users/rcskater1/Desktop/PVRIS - White Noise [Deluxe Edition] (2016) [CD FLAC]/07 Pvris - White Noise.flac
    Track gain               : -7.91 dB
    Peak                     : 1.000000
    CRC32 hash (test run)    : DC7D621D
    CRC32 hash               : DC7D621D
    CRC32 hash (skip zero)   : 521E0246
    AccurateRip v1 signature : E58D4ECC
    AccurateRip v2 signature : 691C50AA
        ->Track not present in AccurateRip database.
    Statistics
        Read error                           : 0
        Jitter error (maybe fixed)           : 0
        Retry sector count                   : 0
        Damaged sector count                 : 0
Track 08
    Filename : /Users/rcskater1/Desktop/PVRIS - White Noise [Deluxe Edition] (2016) [CD FLAC]/08 Pvris - Fire.flac
    Track gain               : -8.24 dB
    Peak                     : 1.000000
    CRC32 hash (test run)    : 25A15FA5
    CRC32 hash               : 25A15FA5
    CRC32 hash (skip zero)   : 011702DE
    AccurateRip v1 signature : 5297FEFE
    AccurateRip v2 signature : 1E824F0C
        ->Track not present in AccurateRip database.
    Statistics
        Read error                           : 0
        Jitter error (maybe fixed)           : 0
        Retry sector count                   : 0
        Damaged sector count                 : 0
Track 09
    Filename : /Users/rcskater1/Desktop/PVRIS - White Noise [Deluxe Edition] (2016) [CD FLAC]/09 Pvris - Eyelids.flac
    Track gain               : -7.66 dB
    Peak                     : 0.999146
    CRC32 hash (test run)    : 6C84C20B
    CRC32 hash               : 6C84C20B
    CRC32 hash (skip zero)   : 467C9647
    AccurateRip v1 signature : A8799EB2
    AccurateRip v2 signature : FB2C42A2
        ->Track not present in AccurateRip database.
    Statistics
        Read error                           : 0
        Jitter error (maybe fixed)           : 0
        Retry sector count                   : 0
        Damaged sector count                 : 0
Track 10
    Filename : /Users/rcskater1/Desktop/PVRIS - White Noise [Deluxe Edition] (2016) [CD FLAC]/10 Pvris - Mirrors.flac
    Track gain               : -8.44 dB
    Peak                     : 1.000000
    CRC32 hash (test run)    : 2F8F108C
    CRC32 hash               : 2F8F108C
    CRC32 hash (skip zero)   : 14CA42A2
    AccurateRip v1 signature : 39FCF46F
    AccurateRip v2 signature : 7E4ECF6C
        ->Track not present in AccurateRip database.
    Statistics
        Read error                           : 0
        Jitter error (maybe fixed)           : 0
        Retry sector count                   : 0
        Damaged sector count                 : 0
Track 11
    Filename : /Users/rcskater1/Desktop/PVRIS - White Noise [Deluxe Edition] (2016) [CD FLAC]/11 Pvris - Ghosts.flac
    Track gain               : -8.20 dB
    Peak                     : 1.000000
    CRC32 hash (test run)    : 13057D67
    CRC32 hash               : 13057D67
    CRC32 hash (skip zero)   : CF578F25
    AccurateRip v1 signature : 901D167F
    AccurateRip v2 signature : 6603790C
        ->Track not present in AccurateRip database.
    Statistics
        Read error                           : 0
        Jitter error (maybe fixed)           : 0
        Retry sector count                   : 0
        Damaged sector count                 : 0
Track 12
    Filename : /Users/rcskater1/Desktop/PVRIS - White Noise [Deluxe Edition] (2016) [CD FLAC]/12 Pvris - Let Them In.flac
    Track gain               : -8.35 dB
    Peak                     : 1.000000
    CRC32 hash (test run)    : 78724EFC
    CRC32 hash               : 78724EFC
    CRC32 hash (skip zero)   : 4ACE5252
    AccurateRip v1 signature : 8A9145C8
    AccurateRip v2 signature : 72883A6F
        ->Track not present in AccurateRip database.
    Statistics
        Read error                           : 0
        Jitter error (maybe fixed)           : 0
        Retry sector count                   : 0
        Damaged sector count                 : 0
Track 13
    Filename : /Users/rcskater1/Desktop/PVRIS - White Noise [Deluxe Edition] (2016) [CD FLAC]/13 Pvris - You And I (Stripped).flac
    Track gain               : -8.11 dB
    Peak                     : 0.993988
    CRC32 hash (test run)    : CBAA0ED5
    CRC32 hash               : CBAA0ED5
    CRC32 hash (skip zero)   : 5AA065EA
    AccurateRip v1 signature : AB305C23
    AccurateRip v2 signature : 6BCEAB47
        ->Track not present in AccurateRip database.
    Statistics
        Read error                           : 0
        Jitter error (maybe fixed)           : 0
        Retry sector count                   : 0
        Damaged sector count                 : 0
No errors occurred
End of status report
-----BEGIN XLD SIGNATURE-----
br7KTw0XP.tMR0q3D8QEITPSyKmY5fXnBxgpjkDnD0AWaOb.9M6CsoaDvWdUa5ooEpUYoZ9wpWhmWwhV1..LCpkrlNjQQvkefWyU8Mm
-----END XLD SIGNATURE-----

======================
百度下载(音乐共享精神)
游客,如果您要查看本帖隐藏内容请回复



上一篇:电子流行合摇滚成器:Dance With The Dead《The Shape》2016/FLAC/BD
下一篇:纯音流行摇滚:Milow《 Modern Heart》2016/FLAC/BD
关于链接失效的说明(度盘+115盘+快传 好友分享的说明)
http://www.cdbao.net/thread-117499-1-1.html     
紧急通告:115,快传等网盘取消了分享功能礼包码链接全部失效
http://www.cdbao.net/thread-122759-1-1.html

0

主题

581

帖子

915

积分

职业歌手

Rank: 3Rank: 3

积分
915

社区QQ达人

发表于 2016-7-15 10:37:16 | 显示全部楼层
美国马萨诸塞州的摇滚乐队,还不错呢

11

主题

536

帖子

1364

积分

当红偶像

Rank: 4

积分
1364
发表于 2016-7-15 12:41:59 | 显示全部楼层
可以吧 , 不算突出 , 有待磨练 ....................

0

主题

199

帖子

311

积分

乐坛新星

Rank: 2

积分
311
发表于 2016-7-16 09:52:04 | 显示全部楼层
略带迷幻的编曲,唱什么其实不重要,只想说塞耳机一定感觉不错,谢谢分享者

0

主题

1674

帖子

2201

积分

当红偶像

Rank: 4

积分
2201

社区QQ达人

发表于 2016-7-16 15:22:21 | 显示全部楼层

一听就喜欢的好音乐   不错  谢谢

0

主题

736

帖子

568

积分

职业歌手

Rank: 3Rank: 3

积分
568
发表于 2016-7-17 10:35:47 | 显示全部楼层
试听都好听,听力都要支持,谢谢

0

主题

842

帖子

1246

积分

职业歌手

Rank: 3Rank: 3

积分
1246
发表于 2016-7-19 11:37:39 | 显示全部楼层
像是别人的歌mix下感觉。。谢谢分享。

1

主题

4235

帖子

4437

积分

人气天王

Rank: 5Rank: 5

积分
4437

社区QQ达人

发表于 2016-7-22 17:06:56 | 显示全部楼层
没有试听,期待好听,支持了先,谢谢楼主

0

主题

13

帖子

-11

积分

恶意回复被扣没分了,积分增加方法见置顶帖

积分
-11
发表于 2016-7-24 17:30:51 | 显示全部楼层
另类流行摇滚电子女声:PVRIS《White Noise》2016豪华版/FLAC/BD

评分

参与人数 1CD -80 收起 理由
最终之战 -80 没看版规吧,论坛严禁无意义灌水。.

查看全部评分

0

主题

252

帖子

445

积分

乐坛新星

Rank: 2

积分
445
发表于 2016-7-27 16:09:30 | 显示全部楼层
来自美国马萨诸塞州的另类摇滚乐队,成员包括Lyndsey Gunnulfsen, Alex Babinski, 和Brian MacDonald。
管理员已阅至此楼

0

主题

18

帖子

67

积分

新人会员,请认真回复,若恶意回复,直接封号

Rank: 1

积分
67
发表于 2016-7-30 00:50:12 | 显示全部楼层
i like this band, deluxe version is good

1

主题

15

帖子

75

积分

新人会员,请认真回复,若恶意回复,直接封号

Rank: 1

积分
75
发表于 2016-8-5 00:03:14 | 显示全部楼层
一直喜欢听电音,这专辑不错~电音女声的新高度!

0

主题

58

帖子

114

积分

新人会员,请认真回复,若恶意回复,直接封号

Rank: 1

积分
114
发表于 2016-8-17 13:05:54 | 显示全部楼层
RE: 另类流行摇滚电子女声:PVRIS《White Noise》2016豪华版/FLAC/BD [[url=]修改[/url]] 感谢分享

0

主题

1489

帖子

641

积分

职业歌手

Rank: 3Rank: 3

积分
641
发表于 2016-9-7 09:50:06 | 显示全部楼层
不错,谢谢分享好东西!!!!!!!!!!!!!!!

0

主题

142

帖子

248

积分

乐坛新星

Rank: 2

积分
248

社区QQ达人

发表于 2016-9-29 10:56:47 | 显示全部楼层
谢谢分享,下来听听,希望链接没过期
您需要登录后才可以回帖 登录 | 注册

本版积分规则

快速回复 返回顶部 返回列表