查看: 799|回复: 1

[华语] 原抓:羽泉《没你不行》2003 整轨WAV+LOG/百度

[复制链接]

58

主题

116

帖子

1万

积分

流行教主

Rank: 6Rank: 6

积分
12893
发表于 2016-3-16 23:05:35 | 显示全部楼层 |阅读模式

注册会员,获得无损资源下载地址,享受高品质音乐。

您需要 登录 才可以下载或查看,没有帐号?注册

x
IMG_0317.JPG
IMG_0318.JPG
IMG_0312.JPG

歌手: 羽泉
专辑中文名: 没你不行
流派: 流行
发行时间: 2003
出版者: 滚石唱片


专辑介绍:

羽出惊人,泉力以赴!更加凌厉的旋律刀锋,更多精巧的节奏暗器,18个月的精心历练,羽·泉为你缔造《没你不行》的音乐空间!2003年全新上路,续写300万白金销量神话,记载一路成长,十三首最新单曲,更自然、更成熟、更亲近、更浪漫!


专辑曲目:

1. 没你不行
2. 惩罚
3. 天使 (For My Angel)
4. 因为爱
5. 还剩下什么
6. 在这一秒
7. 超乎想象
8. 坎大哈黎明
9. 火柴
10. 种子
11. 飞蛾
12. 忘了
13. 旅程


百度下载:
游客,如果您要查看本帖隐藏内容请回复




================================
Exact Audio Copy V1.1 from 23. June 2015

EAC 抓取日志文件从14. 三月 2016, 3:57

羽·泉 / 没你不行

使用驱动器  :ASUS    DRW-24D1ST   Adapter: 1  ID: 0

读取模式 : 暴发

读取偏移校正:               : 667
读取 Lead-In 和 Lead-Out : 否
用静音填充抓取中丢失偏移的采样       : 是
去除首尾静音块               : 否
在CRC 计算中使用了空样本       : 是
已用接口                  : Win NT 及 2000 本地 Win32 接口

所用输出模式: : 内部 WAV 函数
样本格式    : 44.100 Hz; 16 Bit; 立体声


已抓取 CD 的 TOC

     音轨 |    起始    |    长度    |  起始扇区  |  结束扇区  
    --------------------------------------------
      1 |  0:00.00 |  3:37.00 |      0 |  16274
      2 |  3:37.00 |  4:02.47 |  16275 |  34471
      3 |  7:39.47 |  4:31.13 |  34472 |  54809
      4 | 12:10.60 |  4:32.57 |  54810 |  75266
      5 | 16:43.42 |  4:17.10 |  75267 |  94551
      6 | 21:00.52 |  2:35.00 |  94552 | 106176
      7 | 23:35.52 |  3:37.73 | 106177 | 122524
      8 | 27:13.50 |  5:30.02 | 122525 | 147276
      9 | 32:43.52 |  4:34.05 | 147277 | 167831
     10 | 37:17.57 |  3:51.55 | 167832 | 185211
     11 | 41:09.37 |  4:11.03 | 185212 | 204039
     12 | 45:20.40 |  4:27.17 | 204040 | 224081
     13 | 49:47.57 |  3:40.48 | 224082 | 240629


范围状态及错误

已选择范围

     文件名 C:\Users\liuliu\Desktop\羽·泉-没你不行\羽·泉 - 没你不行.wav

     计时问题 0:40:13
     计时问题 0:43:49 - 0:43:50
     计时问题 0:47:53
     计时问题 0:48:13
     计时问题 0:48:18
     计时问题 0:48:26
     计时问题 0:48:32
     计时问题 0:51:19

     峰值电平 94.5 %
     抓取速度 19.3 X
     复制 CRC 04749743
     复制结束

没有错误发生


AccurateRip 摘要

音轨  1  精确地校准抓取  4)  [71768213]  (AR v2)
音轨  2  精确地校准抓取  4)  [EAC6ABCF]  (AR v2)
音轨  3  精确地校准抓取  4)  [5378EC59]  (AR v2)
音轨  4  精确地校准抓取  4)  [77FA867A]  (AR v2)
音轨  5  精确地校准抓取  4)  [1AC3CC2F]  (AR v2)
音轨  6  精确地校准抓取  4)  [1B319F23]  (AR v2)
音轨  7  精确地校准抓取  4)  [2B5619B4]  (AR v2)
音轨  8  精确地校准抓取  4)  [720E8F43]  (AR v2)
音轨  9  精确地校准抓取  4)  [08276382]  (AR v2)
音轨 10  不能准确地校验 (确认 4)  [CC983A1A], 返回 AccurateRip [1E60764A]  (AR v2)
音轨 11  不能准确地校验 (确认 3)  [652D8807], 返回 AccurateRip [653A8720]  (AR v2)
音轨 12  不能准确地校验 (确认 3)  [345411CC], 返回 AccurateRip [4CEEB457]  (AR v2)
音轨 13  不能准确地校验 (确认 3)  [3BB9878D], 返回 AccurateRip [56776682]  (AR v2)

9 音轨精确校准抓取
4 音轨不能准确校验

一些音轨不能准确地校验

状态报告结尾

---- CUETools DB Plugin V2.1.6

[CTDB TOCID: wU_mIkE3b3SUpYtG_3e81iI.vQ0-] database access error: 请求被中止: 请求已被取消。


==== 记录校验日志 BB74C3ECED88B35FCC7C7CE309F5B8AE49887C2859B20F8CD0FBD99F9DC33BBE ====

------------------------------------------------------------

Exact Audio Copy V1.1 from 23. June 2015

EAC 抓取日志文件从14. 三月 2016, 3:58

羽·泉 / 没你不行

使用驱动器  :ASUS    DRW-24D1ST   Adapter: 1  ID: 0

读取模式 : 暴发

读取偏移校正:               : 667
读取 Lead-In 和 Lead-Out : 否
用静音填充抓取中丢失偏移的采样       : 是
去除首尾静音块               : 否
在CRC 计算中使用了空样本       : 是
已用接口                  : Win NT 及 2000 本地 Win32 接口

所用输出模式: : 内部 WAV 函数
样本格式    : 44.100 Hz; 16 Bit; 立体声


已抓取 CD 的 TOC

     音轨 |    起始    |    长度    |  起始扇区  |  结束扇区  
    --------------------------------------------
      1 |  0:00.00 |  3:37.00 |      0 |  16274
      2 |  3:37.00 |  4:02.47 |  16275 |  34471
      3 |  7:39.47 |  4:31.13 |  34472 |  54809
      4 | 12:10.60 |  4:32.57 |  54810 |  75266
      5 | 16:43.42 |  4:17.10 |  75267 |  94551
      6 | 21:00.52 |  2:35.00 |  94552 | 106176
      7 | 23:35.52 |  3:37.73 | 106177 | 122524
      8 | 27:13.50 |  5:30.02 | 122525 | 147276
      9 | 32:43.52 |  4:34.05 | 147277 | 167831
     10 | 37:17.57 |  3:51.55 | 167832 | 185211
     11 | 41:09.37 |  4:11.03 | 185212 | 204039
     12 | 45:20.40 |  4:27.17 | 204040 | 224081
     13 | 49:47.57 |  3:40.48 | 224082 | 240629


范围状态及错误

已选择范围

     文件名 C:\Users\liuliu\Desktop\羽·泉-没你不行\羽·泉 - 没你不行.wav

     计时问题 0:40:13
     计时问题 0:43:49 - 0:43:50
     计时问题 0:47:53
     计时问题 0:48:13
     计时问题 0:48:18
     计时问题 0:48:26
     计时问题 0:48:32
     计时问题 0:51:19

     峰值电平 94.5 %
     抓取速度 19.3 X
     复制 CRC 04749743
     复制结束

没有错误发生


AccurateRip 摘要

音轨  1  精确地校准抓取  4)  [71768213]  (AR v2)
音轨  2  精确地校准抓取  4)  [EAC6ABCF]  (AR v2)
音轨  3  精确地校准抓取  4)  [5378EC59]  (AR v2)
音轨  4  精确地校准抓取  4)  [77FA867A]  (AR v2)
音轨  5  精确地校准抓取  4)  [1AC3CC2F]  (AR v2)
音轨  6  精确地校准抓取  4)  [1B319F23]  (AR v2)
音轨  7  精确地校准抓取  4)  [2B5619B4]  (AR v2)
音轨  8  精确地校准抓取  4)  [720E8F43]  (AR v2)
音轨  9  精确地校准抓取  4)  [08276382]  (AR v2)
音轨 10  不能准确地校验 (确认 4)  [CC983A1A], 返回 AccurateRip [1E60764A]  (AR v2)
音轨 11  不能准确地校验 (确认 3)  [652D8807], 返回 AccurateRip [653A8720]  (AR v2)
音轨 12  不能准确地校验 (确认 3)  [345411CC], 返回 AccurateRip [4CEEB457]  (AR v2)
音轨 13  不能准确地校验 (确认 3)  [3BB9878D], 返回 AccurateRip [56776682]  (AR v2)

9 音轨精确校准抓取
4 音轨不能准确校验

一些音轨不能准确地校验

状态报告结尾

---- CUETools DB Plugin V2.1.6

[CTDB TOCID: wU_mIkE3b3SUpYtG_3e81iI.vQ0-] database access error: 请求被中止: 请求已被取消。


==== 记录校验日志 0AC909A3DA388F4366713F6CF38319E63C332DFED84A0731AEC33CE020A2160A ====





评分

参与人数 1CD +260 包子 +2 收起 理由
CDbao + 260 + 2 感谢分享资源,CD包因你而精彩.

查看全部评分




上一篇:原抓:羽泉《三十》2005 整轨WAV+LOG/百度
下一篇:原抓:羽泉《我们唱邓丽君》2006 整轨WAV+LOG/百度
 成长值: 80

0

主题

109

帖子

171

积分

VIP1

Rank: 4

积分
171
发表于 2016-11-26 00:15:42 | 显示全部楼层
学生时期还买过这张专辑的CD呢,很经典的专辑,感谢楼主分享!
您需要登录后才可以回帖 登录 | 注册

本版积分规则

快速回复 返回顶部 返回列表