查看: 1058|回复: 5

[华语] 原抓:许巍《一时(Remix概念精选辑)》2011 整轨WAV+LOG/百度

[复制链接]

58

主题

116

帖子

1万

积分

流行教主

Rank: 6Rank: 6

积分
12895
发表于 2016-3-13 23:43:39 | 显示全部楼层 |阅读模式

注册会员,获得无损资源下载地址,享受高品质音乐。

您需要 登录 才可以下载或查看,没有帐号?注册

x
本帖最后由 prs 于 2016-3-13 23:51 编辑

专辑封面:

IMG_0117.JPG IMG_0119.JPG
IMG_0122.JPG IMG_0121.JPG
IMG_0151.JPG



专辑名称:一时(Remix概念精选辑)
歌手姓名:许巍
制作发行:金牌大风
发行时间:2011年1月1日
专辑语言:国语

专辑介绍:

金牌大风在2011年1月1日推出的许巍Remix概念精选辑《一时》,不仅是对大家所热爱的音乐的致意,也是对我们经历的人生的慰问,作为一张为精选辑重新定义的音乐作品,其中凝聚的许巍本人以及幕后团队的时间、精力和心血,绝不输于炮制一张全新的专辑。

在音乐上对经典进行了重建整体结构的二度创作,在概念上构思出博大精深的沉浸空间,力保了这张专辑高品质的内涵。而企划团队对完美的追求是孜孜不倦的,在外在包装方面他们同样力求出类拔萃。可以说,无论是内涵还是外在,金牌大风都奉上了百分百的诚意,誓将这张概念精选辑铸就成为许巍音乐的典藏级珍品。它将会是大家在新年第一天收到的第一份厚重大礼。

专辑曲目:

1. Intro
2.小鱼的理想
3.蓝莲花
4.每一刻都是崭新的
5.少年  
6.星空
7.时光
8.旅行
9.Outro


================
百度下载:
游客,如果您要查看本帖隐藏内容请回复





================================
Exact Audio Copy V1.1 from 23. June 2015

EAC 抓取日志文件从12. 三月 2016, 3:27

许巍 / 一时

使用驱动器  :ASUS    DRW-24D1ST   Adapter: 1  ID: 0

读取模式      : 可靠Secure
使用精确流     : 是
清空音频缓存    : 是
使用 C2 指示器 : 否

读取偏移校正:               : 667
读取 Lead-In 和 Lead-Out : 否
用静音填充抓取中丢失偏移的采样       : 是
去除首尾静音块               : 否
在CRC 计算中使用了空样本       : 是
已用接口                  : Win NT 及 2000 本地 Win32 接口

所用输出模式: : 内部 WAV 函数
样本格式    : 44.100 Hz; 16 Bit; 立体声


已抓取 CD 的 TOC

     音轨 |    起始    |    长度    |  起始扇区  |  结束扇区  
    --------------------------------------------
      1 |  0:00.00 |  1:07.37 |      0 |   5061
      2 |  1:07.37 |  6:49.08 |   5062 |  35744
      3 |  7:56.45 |  7:02.00 |  35745 |  67394
      4 | 14:58.45 |  5:11.37 |  67395 |  90756
      5 | 20:10.07 |  5:31.00 |  90757 | 115581
      6 | 25:41.07 |  4:56.37 | 115582 | 137818
      7 | 30:37.44 |  5:26.00 | 137819 | 162268
      8 | 36:03.44 |  4:31.37 | 162269 | 182630
      9 | 40:35.06 |  1:15.00 | 182631 | 188255


范围状态及错误

已选择范围

     文件名 C:\Users\liuliu\Desktop\许巍-一时\许巍 - 一时.wav

     峰值电平 100.0 %
     抓取速度 6.9 X
     范围质量 100.0 %
     复制 CRC 6CD34EC8
     复制成功

没有错误发生


AccurateRip 摘要

音轨  1  精确地校准抓取  2)  [6763320B]  (AR v2)
音轨  2  精确地校准抓取  2)  [D22B972F]  (AR v2)
音轨  3  精确地校准抓取  2)  [72C577D2]  (AR v2)
音轨  4  精确地校准抓取  2)  [92452103]  (AR v2)
音轨  5  精确地校准抓取  2)  [7BB12209]  (AR v2)
音轨  6  精确地校准抓取  2)  [7B22C2B8]  (AR v2)
音轨  7  精确地校准抓取  2)  [F9F71622]  (AR v2)
音轨  8  精确地校准抓取  2)  [5C242586]  (AR v2)
音轨  9  精确地校准抓取  2)  [239DD0DA]  (AR v2)

所有音轨精确校准抓取

状态报告结尾

---- CUETools DB Plugin V2.1.6

[CTDB TOCID: 18_YAW42iUAjb.KOsFxhVZUsQag-] found
Submit result: 请求被中止: 请求已被取消。
Track | CTDB Status
  1   | (6/6) Accurately ripped
  2   | (6/6) Accurately ripped
  3   | (6/6) Accurately ripped
  4   | (6/6) Accurately ripped
  5   | (6/6) Accurately ripped
  6   | (6/6) Accurately ripped
  7   | (6/6) Accurately ripped
  8   | (6/6) Accurately ripped
  9   | (6/6) Accurately ripped


==== 记录校验日志 DDF1FA7E3C31FBC85855AA3F93EFF167335E7C7BBF9F6D19F7B22578C9245FEB ====

评分

参与人数 1CD +240 包子 +5 收起 理由
最终之战 + 240 + 5 感谢分享资源,CD包因你而精彩.

查看全部评分




上一篇:原抓:许巍《在路上》2006 整轨WAV+LOG/百度
下一篇:原抓:水木年华《双重幻想》2007 整轨WAV+LOG/百度
 成长值: 19665

6547

主题

1万

帖子

8万

积分

音乐掌门人

Rank: 20Rank: 20Rank: 20Rank: 20Rank: 20

积分
84446

名人勋章社区QQ达人分享勋章精华帖达人灌水勋章

发表于 2016-3-15 10:20:09 | 显示全部楼层
蓝莲花,我以前做片子时还用过。。。
关于链接失效的说明(度盘+115盘+快传 好友分享的说明)
http://www.cdbao.net/thread-117499-1-1.html     
紧急通告:115,快传等网盘取消了分享功能礼包码链接全部失效
http://www.cdbao.net/thread-122759-1-1.html

0

主题

4

帖子

75

积分

新人会员,请认真回复,若恶意回复,直接封号

Rank: 1

积分
75
发表于 2016-3-16 12:29:03 | 显示全部楼层
期待楼主发出来CD2

252

主题

1073

帖子

6万

积分

天王巨星

金属๑۩۞۩๑王国

Rank: 7Rank: 7Rank: 7

积分
62802

社区QQ达人分享勋章灌水勋章精华帖达人

发表于 2016-3-17 11:21:08 | 显示全部楼层
星空这歌曲我的最爱,太喜欢这首曲子了!
瞬间死亡115账号:12142694

互助求砖金属q群:295379995

0

主题

32

帖子

109

积分

新人会员,请认真回复,若恶意回复,直接封号

Rank: 1

积分
109

社区QQ达人

发表于 2016-8-23 15:55:19 | 显示全部楼层
捞点老歌听一听。。。。。
 成长值: 740

0

主题

17

帖子

78

积分

VIP2

Rank: 5Rank: 5

积分
78
发表于 2016-9-29 18:00:49 | 显示全部楼层
许巍《一时(Remix概念精选辑)》2011 整轨WAV+LOG/百度
您需要登录后才可以回帖 登录 | 注册

本版积分规则

快速回复 返回顶部 返回列表