查看: 692|回复: 4

[华语] 原抓:许巍《每一刻都是崭新的》2005 整轨WAV+LOG/百度

[复制链接]

58

主题

116

帖子

1万

积分

流行教主

Rank: 6Rank: 6

积分
12895
发表于 2016-3-13 22:34:40 | 显示全部楼层 |阅读模式

注册会员,获得无损资源下载地址,享受高品质音乐。

您需要 登录 才可以下载或查看,没有帐号?注册

x
专辑封面:

IMG_0089.JPG
IMG_0091.JPG
IMG_0141.JPG


歌手: 许巍
发行时间: 2005年01月01日
地区: 大陆
语言: 普通话

专辑介绍:

对于关心华语原创音乐的朋友来说,“许巍”两个字就是一个“特殊的品牌”:他用旋律祭奠过去,用淡定表白未来,歌声在他的肺腑唇齿间游走,就凝结成了对人生的敬畏,对音乐的感恩。很多人这样说:我们期待他的作品,不如说,我们在等待许巍给我们一个生活的感悟。
从许巍带着自己的音乐梦想由西安到北京发展至今,已经有整整十个年头了。十年来,看尽乐坛荣枯消长,许巍的音乐始终都是以自己的方式向前跃进。距离上一张专辑《时光漫步》历经了近3年的时间,许巍终于在所有人的期盼中,于12月9日全面发行自己的第四张原创专辑《每一刻都是崭新的》。许巍自己坦言,这张全创作专辑是他苦苦行吟后的心得,包含着他的欢喜悲忧,和不能否认的自我改变。所以,许巍承认,无论对音乐还是对人生,这都是一张承前启后的专辑,连接着他和我们共同的过去和未来。
作为华语乐坛的新一代精神领袖,许巍出道10年,历练3年,许巍终于完成酝酿三年的全新创作专辑《每一刻都是崭新的》,11首歌曲陪伴你度过这个最寂寞的冬夜。在这张专辑中,许巍所描绘的那些生活小事犹如在儿童的眼睛中观看这个世界,但是那些歌声中一直在传达着这样的资讯——喜悦于希望,宽容于力量。那是历经坎坷后的歌者,面对生活时的态度所决定的,那是一种云淡风轻般的乐观淡定和从容不迫的情怀。
这是一张具有平衡之美的专辑,十首歌曲在重与轻、急与缓、淡与浓之间达到了和谐与统一,那些音符的后面正是自在跳动着的许巍的一颗平常心——在一个物欲横流的时代,有谁知道,保有一颗平常心是多么的难得。
这是一张返璞归真的专辑,它明确地表明了无论时代怎样变化,无论环境怎样改变,有些东西是不会变的,对于许巍来说,那一向意味着这样的词语——简单、善良、纯粹、光明、希望、真诚——而在专辑中不过是化为了最直接的行为:用心歌唱。
音乐对很多人来说,只是生活中的一小部分,甚至显得微不足道,但是对于另外一些人,这其中也包括我们,音乐是生命中不可缺少的组成部分。《每一刻都是崭新的》是许巍自己的,也是我们的,它像自由和智慧,终为所有追寻者分享,它在清澈和自省中所散发的力量将是长久和温暖的。


专辑曲目:

01 纯真
02 旅行
03 曾经的你
04 喝茶去
05 坐看云起
06 秋海
07 温暖的季节
08 每一刻都是崭新的
09 永远自由的心
10 小鱼的理想
11 悠远的天空



================
百度下载:
游客,如果您要查看本帖隐藏内容请回复




================================
Exact Audio Copy V1.1 from 23. June 2015

EAC 抓取日志文件从12. 三月 2016, 3:17

许巍 / 每一刻都是崭新的

使用驱动器  :ASUS    DRW-24D1ST   Adapter: 1  ID: 0

读取模式      : 可靠Secure
使用精确流     : 是
清空音频缓存    : 是
使用 C2 指示器 : 否

读取偏移校正:               : 667
读取 Lead-In 和 Lead-Out : 否
用静音填充抓取中丢失偏移的采样       : 是
去除首尾静音块               : 否
在CRC 计算中使用了空样本       : 是
已用接口                  : Win NT 及 2000 本地 Win32 接口

所用输出模式: : 内部 WAV 函数
样本格式    : 44.100 Hz; 16 Bit; 立体声


已抓取 CD 的 TOC

     音轨 |    起始    |    长度    |  起始扇区  |  结束扇区  
    --------------------------------------------
      1 |  0:00.00 |  4:26.42 |      0 |  19991
      2 |  4:26.42 |  4:26.64 |  19992 |  40005
      3 |  8:53.31 |  4:21.31 |  40006 |  59611
      4 | 13:14.62 |  4:38.29 |  59612 |  80490
      5 | 17:53.16 |  4:33.52 |  80491 | 101017
      6 | 22:26.68 |  3:52.28 | 101018 | 118445
      7 | 26:19.21 |  4:34.50 | 118446 | 139045
      8 | 30:53.71 |  3:51.27 | 139046 | 156397
      9 | 34:45.23 |  4:10.33 | 156398 | 175180
     10 | 38:55.56 |  5:04.65 | 175181 | 198045
     11 | 44:00.46 |  5:31.60 | 198046 | 222930


范围状态及错误

已选择范围

     文件名 C:\Users\liuliu\Desktop\许巍-每一刻都是崭新的\许巍 - 每一刻都是崭新的.wav

     峰值电平 98.8 %
     抓取速度 7.2 X
     范围质量 99.9 %
     复制 CRC 803218F3
     复制成功

没有错误发生


AccurateRip 摘要

音轨  1  在数据库中不存在
音轨  2  在数据库中不存在
音轨  3  在数据库中不存在
音轨  4  在数据库中不存在
音轨  5  在数据库中不存在
音轨  6  在数据库中不存在
音轨  7  在数据库中不存在
音轨  8  在数据库中不存在
音轨  9  在数据库中不存在
音轨 10  在数据库中不存在
音轨 11  在数据库中不存在

没有任何音轨在 AccurateRip 数据库中有记录

状态报告结尾

---- CUETools DB Plugin V2.1.6

[CTDB TOCID: t9vFUriXN_3lZ4DqGZPfH_aPAes-] found
Submit result: t9vFUriXN_3lZ4DqGZPfH_aPAes- has been confirmed
Track | CTDB Status
  1   | (25/27) Accurately ripped
  2   | (25/27) Accurately ripped
  3   | (25/27) Accurately ripped
  4   | (25/27) Accurately ripped
  5   | (25/27) Accurately ripped
  6   | (25/27) Accurately ripped
  7   | (25/27) Accurately ripped
  8   | (23/27) Accurately ripped
  9   | (25/27) Accurately ripped
10   | (24/27) Accurately ripped
11   | (26/27) Accurately ripped


==== 记录校验日志 1C2F25F34A411A8CFA383602E972355D3C4F26F1632FA8B7C6B835DDB64F4219 ====

------------------------------------------------------------

Exact Audio Copy V1.1 from 23. June 2015

EAC 抓取日志文件从12. 三月 2016, 3:17

许巍 / 每一刻都是崭新的

使用驱动器  :ASUS    DRW-24D1ST   Adapter: 1  ID: 0

读取模式      : 可靠Secure
使用精确流     : 是
清空音频缓存    : 是
使用 C2 指示器 : 否

读取偏移校正:               : 667
读取 Lead-In 和 Lead-Out : 否
用静音填充抓取中丢失偏移的采样       : 是
去除首尾静音块               : 否
在CRC 计算中使用了空样本       : 是
已用接口                  : Win NT 及 2000 本地 Win32 接口

所用输出模式: : 内部 WAV 函数
样本格式    : 44.100 Hz; 16 Bit; 立体声


已抓取 CD 的 TOC

     音轨 |    起始    |    长度    |  起始扇区  |  结束扇区  
    --------------------------------------------
      1 |  0:00.00 |  4:26.42 |      0 |  19991
      2 |  4:26.42 |  4:26.64 |  19992 |  40005
      3 |  8:53.31 |  4:21.31 |  40006 |  59611
      4 | 13:14.62 |  4:38.29 |  59612 |  80490
      5 | 17:53.16 |  4:33.52 |  80491 | 101017
      6 | 22:26.68 |  3:52.28 | 101018 | 118445
      7 | 26:19.21 |  4:34.50 | 118446 | 139045
      8 | 30:53.71 |  3:51.27 | 139046 | 156397
      9 | 34:45.23 |  4:10.33 | 156398 | 175180
     10 | 38:55.56 |  5:04.65 | 175181 | 198045
     11 | 44:00.46 |  5:31.60 | 198046 | 222930


范围状态及错误

已选择范围

     文件名 C:\Users\liuliu\Desktop\许巍-每一刻都是崭新的\许巍 - 每一刻都是崭新的.wav

     峰值电平 98.8 %
     抓取速度 7.2 X
     范围质量 99.9 %
     复制 CRC 803218F3
     复制成功

没有错误发生


AccurateRip 摘要

音轨  1  在数据库中不存在
音轨  2  在数据库中不存在
音轨  3  在数据库中不存在
音轨  4  在数据库中不存在
音轨  5  在数据库中不存在
音轨  6  在数据库中不存在
音轨  7  在数据库中不存在
音轨  8  在数据库中不存在
音轨  9  在数据库中不存在
音轨 10  在数据库中不存在
音轨 11  在数据库中不存在

没有任何音轨在 AccurateRip 数据库中有记录

状态报告结尾

---- CUETools DB Plugin V2.1.6

[CTDB TOCID: t9vFUriXN_3lZ4DqGZPfH_aPAes-] found
Submit result: t9vFUriXN_3lZ4DqGZPfH_aPAes- has been confirmed
Track | CTDB Status
  1   | (25/27) Accurately ripped
  2   | (25/27) Accurately ripped
  3   | (25/27) Accurately ripped
  4   | (25/27) Accurately ripped
  5   | (25/27) Accurately ripped
  6   | (25/27) Accurately ripped
  7   | (25/27) Accurately ripped
  8   | (23/27) Accurately ripped
  9   | (25/27) Accurately ripped
10   | (24/27) Accurately ripped
11   | (26/27) Accurately ripped


==== 记录校验日志 1C2F25F34A411A8CFA383602E972355D3C4F26F1632FA8B7C6B835DDB64F4219 ====

评分

参与人数 1CD +300 包子 +3 收起 理由
CDbao + 300 + 3 感谢分享资源,CD包因你而精彩.

查看全部评分




上一篇:最终:黑湖Black Lake《Fight Battle War》2014限量150张手写编号NO.80
下一篇:原抓:许巍《在路上》2006 整轨WAV+LOG/百度
 成长值: 19665

6547

主题

1万

帖子

8万

积分

音乐掌门人

Rank: 20Rank: 20Rank: 20Rank: 20Rank: 20

积分
84446

名人勋章社区QQ达人分享勋章精华帖达人灌水勋章

发表于 2016-3-15 10:18:42 | 显示全部楼层
经典专辑之一,当收!!!
关于链接失效的说明(度盘+115盘+快传 好友分享的说明)
http://www.cdbao.net/thread-117499-1-1.html     
紧急通告:115,快传等网盘取消了分享功能礼包码链接全部失效
http://www.cdbao.net/thread-122759-1-1.html

252

主题

1073

帖子

6万

积分

天王巨星

金属๑۩۞۩๑王国

Rank: 7Rank: 7Rank: 7

积分
62802

社区QQ达人分享勋章灌水勋章精华帖达人

发表于 2016-3-17 11:17:17 | 显示全部楼层
原抓的质量真好,当时学校里面都是听他的歌!
瞬间死亡115账号:12142694

互助求砖金属q群:295379995

0

主题

32

帖子

109

积分

新人会员,请认真回复,若恶意回复,直接封号

Rank: 1

积分
109

社区QQ达人

发表于 2016-8-23 16:00:17 | 显示全部楼层
一个时代一个时代 真的差很多
 成长值: 740

0

主题

17

帖子

78

积分

VIP2

Rank: 5Rank: 5

积分
78
发表于 2016-9-29 18:02:10 | 显示全部楼层
许巍《每一刻都是崭新的》2005 整轨WAV+LOG/百度
您需要登录后才可以回帖 登录 | 注册

本版积分规则

快速回复 返回顶部 返回列表