查看: 1752|回复: 18

[LIVE] 阿黛尔 Adele《Water Under The Bridge》2015/1080I/TS/BD+115

[复制链接] [已阅至12楼]
 成长值: 19575

6466

主题

1万

帖子

8万

积分

音乐掌门人

Rank: 20Rank: 20Rank: 20Rank: 20Rank: 20

积分
83763

名人勋章社区QQ达人分享勋章精华帖达人灌水勋章

发表于 2015-12-8 00:44:39 | 显示全部楼层 |阅读模式

注册会员,获得无损资源下载地址,享受高品质音乐。

您需要 登录 才可以下载或查看,没有帐号?注册

x
vlcsnap-2015-12-08-00h47m47s844.jpg
vlcsnap-2015-12-08-00h47m58s671.jpg
vlcsnap-2015-12-08-00h48m03s348.jpg
vlcsnap-2015-12-08-00h48m26s617.jpg

thumbs20151208000716.jpg
Adele - Water Under The Bridge - The Tonight Show with Jimmy Fallon 11-23-2015 1.jpg

Adele - Water Under The Bridge


Жанр: Soul / Pop
Продолжительность: 00:05:15
Год выпуска: 2015
Описание: Live at The Tonight Show Starring Jimmy Fallon 23 ноября 2015 г.
Качество: HDTV 1080i
Контейнер: TS
Видео кодек: H.264
Аудио кодек: AC3
Видео: AVC, 1920x1080 (16:9), 29.970 fps, 23.3 Mbps
Аудио: AC-3, 48.0 KHz, 6 ch, 448 Kbps
General
ID                                       : 1 (0x1)
Complete name                            : M:\Adele - Water Under The Bridge - The Tonight Show with Jimmy Fallon 11-23-2015 1080i HDTV DD5.1 H.264-ALANiS.ts
Format                                   : MPEG-TS
File size                                : 937 MiB
Duration                                 : 5mn 15s
Overall bit rate mode                    : Variable
Overall bit rate                         : 24.9 Mbps
Movie name                               : Tonight Show Jimmy Fallon
Law rating                               : TV-14 (L)
Video
ID                                       : 33 (0x21)
Menu ID                                  : 1 (0x1)
Format                                   : AVC
Format/Info                              : Advanced Video Codec
Format profile                           : [email protected]
Format settings, CABAC                   : Yes
Format settings, ReFrames                : 4 frames
Format settings, GOP                     : M=4, N=32
Codec ID                                 : 27
Duration                                 : 5mn 15s
Bit rate                                 : 23.3 Mbps
Width                                    : 1 920 pixels
Height                                   : 1 080 pixels
Display aspect ratio                     : 16:9
Frame rate                               : 29.970 fps
Color space                              : YUV
Chroma subsampling                       : 4:2:0
Bit depth                                : 8 bits
Scan type                                : Interlaced
Scan order                               : Top Field First
Bits/(Pixel*Frame)                       : 0.374
Stream size                              : 873 MiB (93%)
Color range                              : Full
Color primaries                          : BT.709
Transfer characteristics                 : BT.709
Matrix coefficients                      : BT.709
Audio
ID                                       : 36 (0x24)
Menu ID                                  : 1 (0x1)
Format                                   : AC-3
Format/Info                              : Audio Coding 3
Mode extension                           : CM (complete main)
Format settings, Endianness              : Big
Codec ID                                 : 129
Duration                                 : 5mn 15s
Bit rate mode                            : Constant
Bit rate                                 : 448 Kbps
Channel(s)                               : 6 channels
Channel positions                        : Front: L C R, Side: L R, LFE
Sampling rate                            : 48.0 KHz
Compression mode                         : Lossy
Delay relative to video                  : -17ms
Stream size                              : 16.8 MiB (2%)
Language                                 : English
Text #1
ID                                       : 33 (0x21)-CC1
Menu ID                                  : 1 (0x1)
Format                                   : EIA-608
Muxing mode                              : SCTE 128 / DTVCC Transport
Muxing mode, more info                   : Muxed in Video #1
Duration                                 : 5mn 15s
Bit rate mode                            : Constant
Stream size                              : 0.00 Byte (0%)
Text #2
ID                                       : 33 (0x21)-CC3
Menu ID                                  : 1 (0x1)
Format                                   : EIA-608
Muxing mode                              : SCTE 128 / DTVCC Transport
Muxing mode, more info                   : Muxed in Video #1
Duration                                 : 5mn 15s
Bit rate mode                            : Constant
Stream size                              : 0.00 Byte (0%)
Text #3
ID                                       : 33 (0x21)-1
Menu ID                                  : 1 (0x1)
Format                                   : EIA-708
Muxing mode                              : SCTE 128 / DTVCC Transport
Muxing mode, more info                   : Muxed in Video #1
Duration                                 : 5mn 15s
Bit rate mode                            : Constant
Stream size                              : 0.00 Byte (0%)
Text #4
ID                                       : 33 (0x21)-3
Menu ID                                  : 1 (0x1)
Format                                   : EIA-708
Muxing mode                              : SCTE 128 / DTVCC Transport
Muxing mode, more info                   : Muxed in Video #1
Duration                                 : 5mn 15s
Bit rate mode                            : Constant
Stream size                              : 0.00 Byte (0%)

百度下载:
游客,如果您要查看本帖隐藏内容请回复


115下载:
游客,如果您要查看本帖隐藏内容请回复




===================================
扩展下载:
阿黛尔 Adele《25》DSD_SACD/2015/DFF[1/5,6 MHz 128]/3.81G/BD+115
阿黛尔 Adele《25》WavPack/2015/LP_FLAC[1/5,6 MHz][32/176,4]1.77G/BD+115
阿黛尔 Adele 新专《25》2015/FLAC/度盘+快传
阿黛尔 Adele《25》Target Exclusive Deluxe Edition/2015/FLAC/BD+KC
阿黛尔 Adele 新专《25》2015/LP/24_96/FLAC/度盘+快传/963.1MB

阿黛尔 Adele 新专《25》2015/MP3/度盘+快传
阿黛尔 Adele《25》Target Exclusive Deluxe Edition/2015/MP3/BD+KC

阿黛尔 Adele《Live at Le Grand Show》2015/1080I/TS/BD+115
阿黛尔 Adele《Saturday Night Live》2015/1080I/TS/BD+115
阿黛尔 Adele《Water Under The Bridge》2015/1080I/TS/BD+115
阿黛尔:Adele At The BBC/2015/1080i/TS/BD+115/5.57GB
阿黛尔 Adele《Hello》Live NRJ Music Awards/1080P/MKV/BD+115
阿黛尔 Adele《Hello》2015 Master/1080P/MOV/BD+115

来自群组: 欧美流行



上一篇:《中国之星》20151205第三期/MKV/度盘
下一篇:阿黛尔 Adele《Saturday Night Live》2015/1080I/TS/BD+115
关于链接失效的说明(度盘+115盘+快传 好友分享的说明)
http://www.cdbao.net/thread-117499-1-1.html     
紧急通告:115,快传等网盘取消了分享功能礼包码链接全部失效
http://www.cdbao.net/thread-122759-1-1.html

0

主题

65

帖子

258

积分

乐坛新星

Rank: 2

积分
258

社区QQ达人

发表于 2015-12-8 01:31:54 | 显示全部楼层
主持人身材好火辣啊,看看,谢谢分享

0

主题

12

帖子

67

积分

新人会员,请认真回复,若恶意回复,直接封号

Rank: 1

积分
67
发表于 2015-12-8 15:09:38 | 显示全部楼层
呵呵  这个真的很是喜欢的资源啊

4

主题

541

帖子

376

积分

乐坛新星

Rank: 2

积分
376
发表于 2015-12-8 23:22:30 | 显示全部楼层
感谢了、11!!!。。。看把卡

1

主题

183

帖子

394

积分

乐坛新星

Rank: 2

积分
394
发表于 2015-12-9 21:57:39 | 显示全部楼层
1080的,一定要收藏,她的歌很好听。

0

主题

131

帖子

1300

积分

当红偶像

Rank: 4

积分
1300
发表于 2015-12-13 21:40:16 | 显示全部楼层
每年对于欧美音乐最期待的也就数这个奖项了 好资源 非常感谢楼主

integral

0

主题

130

帖子

928

积分

职业歌手

Rank: 3Rank: 3

积分
928
发表于 2015-12-13 23:29:39 | 显示全部楼层
谢谢你太感谢您了···················

0

主题

204

帖子

336

积分

乐坛新星

Rank: 2

积分
336
发表于 2015-12-23 08:15:41 | 显示全部楼层
她的声音全世界公认的好声音

0

主题

55

帖子

183

积分

乐坛新星

Rank: 2

积分
183

社区QQ达人

发表于 2016-1-4 14:38:50 | 显示全部楼层

太棒了,必须收藏,顶顶顶顶顶

3

主题

149

帖子

227

积分

乐坛新星

Rank: 2

积分
227

社区QQ达人

发表于 2016-1-6 18:39:36 | 显示全部楼层
这个女人真是好声音,赞。刚看一个他的蓝光

0

主题

10

帖子

63

积分

新人会员,请认真回复,若恶意回复,直接封号

Rank: 1

积分
63
发表于 2016-2-7 19:35:16 | 显示全部楼层
感谢感谢 终于找到了!!!!!!!!!

0

主题

27

帖子

56

积分

新人会员,请认真回复,若恶意回复,直接封号

Rank: 1

积分
56

社区QQ达人

发表于 2016-2-27 22:40:14 | 显示全部楼层
谢谢大神分享!!!!!!!!!!!!!!!!!!!

管理员已阅至此楼

0

主题

45

帖子

129

积分

新人会员,请认真回复,若恶意回复,直接封号

Rank: 1

积分
129
发表于 2016-3-9 09:58:14 | 显示全部楼层
一定要收藏,她的歌很好听。谢谢

0

主题

7

帖子

61

积分

新人会员,请认真回复,若恶意回复,直接封号

Rank: 1

积分
61
发表于 2016-4-5 12:34:51 | 显示全部楼层
Жанр: Soul / Pop
Продолжительность: 00:05:15
Год выпуска: 2015
Описание: Live at The Tonight Show Starring Jimmy Fallon 23 ноября 2015 г.
Качество: HDTV 1080i
Контейнер: TS
Видео кодек: H.264
Аудио кодек: AC3
Видео: AVC, 1920x1080 (16:9), 29.970 fps, 23.3 Mbps
Аудио: AC-3, 48.0 KHz, 6 ch, 448 Kbps

1

主题

103

帖子

470

积分

职业歌手

Rank: 3Rank: 3

积分
470
发表于 2016-5-25 15:50:25 | 显示全部楼层
这歌够欢快的,还不错,我喜欢的类型
您需要登录后才可以回帖 登录 | 注册

本版积分规则

快速回复 返回顶部 返回列表