查看: 832|回复: 23

加拿大人声爵士流行:Wendy Lands《Altitude》2015/FLAC/BD+115

[复制链接] [已阅至14楼]
 成长值: 19605

6509

主题

1万

帖子

8万

积分

音乐掌门人

Rank: 20Rank: 20Rank: 20Rank: 20Rank: 20

积分
84073

名人勋章社区QQ达人分享勋章精华帖达人灌水勋章

发表于 2015-12-2 12:02:27 | 显示全部楼层 |阅读模式

注册会员,获得无损资源下载地址,享受高品质音乐。

您需要 登录 才可以下载或查看,没有帐号?注册

x
13088009476511.jpg

加拿大女歌手/词曲作者

You may think you've heard Wendy Lands. Maybe it was her vocal interpretations of Wladyslaw Szpilman's classics on the haunting CD companion to the Oscar winning film 'The Pianist'. It could have been on her JUNO nominated confessional hit CD 'Angels & Ordinary Men'. Or maybe you were in the audience for the original Canadian production of 'Les Miserables', where she starred as 'Eponine'. You may just remember Lands as half of the late 80's duo 'Double Dare'. After all that, it would be understandable to believe you'd 'heard' Wendy Lands. But you would be wrong.

All of the above were stops on a journey - one that culminates in the vulnerable ache - the jazzy undertow that is 'Mumble'. Only when you've heard these sparsely yet soulfully arranged songs filled with lyrical depth, a pop - jazz - rootsy sensibility and the kind of vocal stylings that raise goose bumps, will you have truly heard Wendy Lands

With 'Mumble', Wendy taps into her years of acclaimed songwriting to tell her own stories of tentative exploration, vulnerability, flirtation and desire, fulfilled and unfulfilled. The album is a good night, a sweet morning after, a serenade. Unadorned but unabashed, 'Mumble' is where sentimental meets sensual.

Wendy waited her whole life to find the collaborators who helped create 'Mumble'. Amazingly, they all gravitated to her in unique ways. Songwriter Larry John McNally (Rod Stewart, Bonnie Raitt, Don Henley) had never co-written a song before being mesmerized by a performance by Wendy at L.A.'s The Mint. Emmy winning songwriter/ pianist and longtime Lands fan Don Breithaupt, and JUNO winning producer Greg Kavanagh, relentlessly (and thankfully) pursued Wendy upon her return to Canada after her 5 year writing and recording stint in L.A. And her musical and life partner, Jim Gillard, co-writer on 10 of the 11 tracks, never let Wendy stop dreaming and doing.

Wendy chose to co-produce the disc with Gillard, Breithaupt and Kavanagh who also play drums, piano and guitar respectively, along with Peter Telford on upright bass. To be a part of this project, Lands made each of them take the oath of intimacy. "We sat in my backyard the night before going into the studio and I made them promise that we'd never stray from the original idea of being as intimate as possible," she recalls. And they stayed true to that oath. Each of them is heard in every breath, note, blast and refrain that is 'Mumble'. In an age of Lady Gagas, their collective, restrained genius is like a seductive whisper piercing a world of screams.

Why 'Mumble'? "To me," states Lands, "a Mumble is the first utterance of the naked truth - the subconscious coming to the surface, unfiltered by the conscious. That's what these songs are for me; what I feel and dream but can't always say. So I sing."

So lean in and hear her sing. Close your eyes. Let her wash over and through you - and hear Wendy Lands 'Mumble'
===============================

front.jpg

WENDY LANDS
A L T I T U D E



Жанр - Vocal Jazz, Jazz-Pop
Страна-производитель диска - Canada
Год издания - 2015
Издатель (лейбл) - Rebelette Records
Аудиокодек - FLAC (*.flac)
Тип рипа - image+.cue
Битрейт аудио - lossless
Продолжительность - 43:57


Треклист:
01. Stompin'

02. Holding On To Letting Go
03. Come By Me
04. Words Escape Me (Radio Edit)
05. Boom Boom
06. Hurt You A Little
07. Pray For Rain
08. Who's Gonna Love You
09. The Soul Of Saturday Night
10. Altitude
11. Words Escape Me (Extended Edit)


Exact Audio Copy V1.1 from 23. June 2015
EAC extraction logfile from 28. October 2015, 9:12
Wendy Lands / Altitude
Used drive  : HL-DT-STDVDRAM GH22NS40   Adapter: 2  ID: 1
Read mode               : Secure
Utilize accurate stream : Yes
Defeat audio cache      : Yes
Make use of C2 pointers : No
Read offset correction                      : 667
Overread into Lead-In and Lead-Out          : No
Fill up missing offset samples with silence : Yes
Delete leading and trailing silent blocks   : No
Null samples used in CRC calculations       : Yes
Used interface                              : Installed external ASPI interface
Used output format              : User Defined Encoder
Selected bitrate                : 768 kBit/s
Quality                         : High
Add ID3 tag                     : No
Command line compressor         : C:\Program Files (x86)\Exact Audio Copy\Flac\flac.exe
Additional command line options : -V -4 -T "Date=%year%" -T "Genre=%genre%" %source%
TOC of the extracted CD
     Track |   Start  |  Length  | Start sector | End sector
    ---------------------------------------------------------
        1  |  0:00.00 |  3:41.63 |         0    |    16637
        2  |  3:41.63 |  4:22.01 |     16638    |    36288
        3  |  8:03.64 |  3:30.02 |     36289    |    52040
        4  | 11:33.66 |  3:32.56 |     52041    |    67996
        5  | 15:06.47 |  2:49.23 |     67997    |    80694
        6  | 17:55.70 |  3:47.67 |     80695    |    97786
        7  | 21:43.62 |  3:49.42 |     97787    |   115003
        8  | 25:33.29 |  4:37.67 |    115004    |   135845
        9  | 30:11.21 |  4:04.63 |    135846    |   154208
       10  | 34:16.09 |  5:28.47 |    154209    |   178855
       11  | 39:44.56 |  4:12.54 |    178856    |   197809
Range status and errors
Selected range
     Filename D:\music\vocal\Wendy Lands - Altitude (2015)\Wendy Lands - Altitude.wav
     Peak level 100.0 %
     Extraction speed 1.8 X
     Range quality 100.0 %
     Copy CRC F92886BB
     Copy OK
No errors occurred
End of status report
==== Log checksum 2A759B0DF82126CD8C4E78A1CA1662B95F9AFD9C8432723D6BE9BEB2CAC27DFF ====



============================



百度下载:
游客,如果您要查看本帖隐藏内容请回复

115下载:
游客,如果您要查看本帖隐藏内容请回复
来自群组: 欧美流行



上一篇:VA《NRJ Music Awards 2015》2CD/FLAC/BD+115
下一篇:原抓《火星救援 The Martian》美亚双碟豪华定制版/FLAC/分轨/BD
关于链接失效的说明(度盘+115盘+快传 好友分享的说明)
http://www.cdbao.net/thread-117499-1-1.html     
紧急通告:115,快传等网盘取消了分享功能礼包码链接全部失效
http://www.cdbao.net/thread-122759-1-1.html

29

主题

461

帖子

558

积分

职业歌手

Rank: 3Rank: 3

积分
558
发表于 2015-12-2 13:54:51 | 显示全部楼层
爵士乐非常适合静寂的夜晚听 下来听听

0

主题

239

帖子

471

积分

职业歌手

Rank: 3Rank: 3

积分
471
发表于 2015-12-2 17:29:55 | 显示全部楼层
谢谢楼主分享资源,听听爵士女声。

16

主题

461

帖子

379

积分

乐坛新星

Rank: 2

积分
379

社区QQ达人

发表于 2015-12-2 21:53:41 | 显示全部楼层
Can't wait to have a listen to the beautiful vocal of such a beatiful jazz singer. Thanks

4

主题

197

帖子

101

积分

新人会员,请认真回复,若恶意回复,直接封号

Rank: 1

积分
101

社区QQ达人

发表于 2015-12-3 04:00:20 | 显示全部楼层
爵士流行,下来听听~谢谢分享

22

主题

404

帖子

4171

积分

人气天王

Rank: 5Rank: 5

积分
4171

社区QQ达人

发表于 2015-12-3 04:36:28 | 显示全部楼层
非常好的资源~好音乐不用多说~下来听听~多谢分享!{:7_195:}

0

主题

127

帖子

401

积分

乐坛新星

Rank: 2

积分
401

社区QQ达人

发表于 2015-12-3 10:38:44 | 显示全部楼层
Anything that's Jazz, I would like it. Thanks.

0

主题

239

帖子

275

积分

乐坛新星

Rank: 2

积分
275
发表于 2015-12-3 11:16:37 | 显示全部楼层
看起来非常不错,加拿大人的,谢谢UP主分享

0

主题

869

帖子

1527

积分

当红偶像

Rank: 4

积分
1527
发表于 2015-12-4 12:46:37 | 显示全部楼层
非常棒的沙发!多谢分享精彩音乐!

0

主题

732

帖子

794

积分

职业歌手

Rank: 3Rank: 3

积分
794
发表于 2015-12-4 21:03:57 | 显示全部楼层
This is what I want, good thing.Very pleasant melody, good music.

0

主题

451

帖子

864

积分

职业歌手

Rank: 3Rank: 3

积分
864
发表于 2015-12-5 12:05:40 | 显示全部楼层
以前没有听过呢,看着很不错,试一下

0

主题

1674

帖子

2201

积分

当红偶像

Rank: 4

积分
2201

社区QQ达人

发表于 2015-12-6 14:21:48 | 显示全部楼层

这个不错  喜欢来一个     谢谢楼主

0

主题

30

帖子

112

积分

新人会员,请认真回复,若恶意回复,直接封号

Rank: 1

积分
112
发表于 2015-12-6 15:36:47 | 显示全部楼层
这个爵士歌手第一次听到,感觉随着年龄的增长越来越喜欢爵士这种随性的风格。
感谢分享。

0

主题

135

帖子

301

积分

乐坛新星

Rank: 2

积分
301
发表于 2015-12-8 19:53:02 | 显示全部楼层
Seems not bad, I will keep it, Thx buddy~~~

管理员已阅至此楼

0

主题

403

帖子

499

积分

职业歌手

Rank: 3Rank: 3

积分
499

社区QQ达人

发表于 2015-12-12 20:19:09 | 显示全部楼层
什么类型的啊?先下了再说
您需要登录后才可以回帖 登录 | 注册

本版积分规则

快速回复 返回顶部 返回列表