查看: 1346|回复: 28

VA《NRJ Music Awards 2015》2CD/FLAC/BD+115

[复制链接] [已阅至13楼]
 成长值: 19590

6466

主题

1万

帖子

8万

积分

音乐掌门人

Rank: 20Rank: 20Rank: 20Rank: 20Rank: 20

积分
83764

名人勋章社区QQ达人分享勋章精华帖达人灌水勋章

发表于 2015-12-2 10:49:06 | 显示全部楼层 |阅读模式

注册会员,获得无损资源下载地址,享受高品质音乐。

您需要 登录 才可以下载或查看,没有帐号?注册

x
folder.jpg

NRJ Music Awards 2015 (2CD)


Booklet#1.jpg
Booklet#2.jpg
Booklet#3.jpg
Booklet#4.jpg
Full Cover.jpg
Cover.jpg

Жанр: Pop, Dance, Electronic
Носитель: CD
Страна-производитель диска (релиза): FR
Год издания: 2015
Издатель (лейбл): Warner
Номер по каталогу: 5054196827724
Аудиокодек: FLAC (*.flac)
Тип рипа: tracks+.cue
Битрейт аудио: lossless
Продолжительность: 02:38:21

Discs.jpg
Треклист:
Disc 1 [01:19:22]
01. L.E.J - Summer 2015 (3:22)

02. Charlie Puth feat. Meghan Trainor - Marvin Gaye (3:07)
03. Kendji Girac - Me Quemo (3:14)
04. The Weeknd - Can't Feel My Face (3:32)
05. Robin Schulz feat. Francesco Yates - Sugar (3:39)
06. Maître Gims - Brisé (Pilule bleue) (3:36)
07. Calvin Harris feat. Disciples - How Keep Is Your Love (3:31)
08. Fréro Delavega - Le chant des sirènes (2:57)
09. Skrillex & Diplo with Justin Bieber - Where Are Ü Now (4:05)
10. Selena Gomez feat. Asap Rocky - Good For You (3:40)
11. Nekfeu - On verra (3:28)
12. Ariana Grande - One Last Time (3:15)
13. Silento - Watch Me (Whip / Nae Nae) (3:02)
14. M. Pokora - Wohoo (3:19)
15. Marina Kaye - Homeless (3:39)
16. H-Magnum feat. Indila - Garde l'équilibre (3:43)
17. Madilyn Bailey - Radioactive (2:53)
18. Madcon feat. Ray Dalton - Don't Worry (3:35)
19. OMI - Cheerleader (Felix Jaehn Remix) (3:01)
20. Willy William - Te Quiero (3:19)
21. Lost Frequencies feat. Janieck Devy - Reality (2:39)
22. Ed Sheeran - Photograph (4:16)
23. Mark Ronson feat. Bruno Mars - Uptown Funk (4:29)


Disc 2 [01:18:59]
01. Justin Bieber - What Do You Mean (3:23)

02. David Guetta & Showtek feat. MAGIC! & Sonny Wilson - Sun Goes Down (3:31)
03. Rihanna - Bitch Better Have My Money (3:37)
04. Nicky Jam & Enrique Iglesias - El Perdón (3:26)
05. Black M feat. Kev Adams - Le Prince Aladin (3:34)
06. R.City feat. Adam Levine - Locked Away (3:46)
07. Louane - Avenir (3:03)
08. Macklemore & Ryan Lewis feat. Eric Nally, Melle Mel, Kool Moe Dee & Grandmaster Caz - Downtown (4:53)
09. Soprano - Millionnaire (3:01)
10. Pharrell Williams - Freedom (2:42)
11. Josef Salvat - Open Season (3:59)
12. Demi Lovato - Cool For The Summer (3:33)
13. Jason Derulo - Want To Want Me (3:26)
14. Shy'M - Il faut vivre (3:21)
15. Maroon 5 - Sugar (3:54)
16. Maude - Drinks Up (2:33)
17. Flo Rida feat. Verdine White - I Don't Like It, I Love It (3:43)
18. Eva Simons feat. Konshens - Policeman (3:14)
19. Sigala - Easy Love (2:38)
20. Keen'V - Un monde meilleur (3:26)
21. Avicii - For A Better Day (3:25)
22. Christine And The Queens - Christine (3:54)
23. Major Lazer x DJ Snake feat. MØ - Lean On (2:57)

Exact Audio Copy V1.1 from 23. June 2015
EAC extraction logfile from 30. October 2015, 13:04
Various Artists / NRJ Music Awards 2015
Used drive  : ASUS    DRW-24B3ST   Adapter: 1  ID: 0
Read mode               : Secure
Utilize accurate stream : Yes
Defeat audio cache      : Yes
Make use of C2 pointers : No
Read offset correction                      : 6
Overread into Lead-In and Lead-Out          : No
Fill up missing offset samples with silence : Yes
Delete leading and trailing silent blocks   : No
Null samples used in CRC calculations       : Yes
Used interface                              : Native Win32 interface for Win NT & 2000
Gap handling                                : Appended to previous track
Used output format              : User Defined Encoder
Selected bitrate                : 1024 kBit/s
Quality                         : High
Add ID3 tag                     : No
Command line compressor         : C:\Program Files (x86)\Exact Audio Copy\FLAC\flac.exe
Additional command line options : -8 -V -T "ARTIST=%artist%" -T "TITLE=%title%" -T "ALBUM=%albumtitle%" -T "DATE=%year%" -T "TRACKNUMBER=%tracknr%" -T "GENRE=%genre%" -T "PERFORMER=%albuminterpret%" -T "COMPOSER=%composer%" %haslyrics%--tag-from-file=LYRICS="%lyricsfile%"%haslyrics% -T "ALBUMARTIST=%albumartist%" -T "DISCNUMBER=%cdnumber%" -T "TOTALDISCS=%totalcds%" -T "TOTALTRACKS=%numtracks%" -T "COMMENT=%comment%" %source% -o %dest%
TOC of the extracted CD
     Track |   Start  |  Length  | Start sector | End sector
    ---------------------------------------------------------
        1  |  0:00.00 |  3:22.63 |         0    |    15212
        2  |  3:22.63 |  3:31.19 |     15213    |    31056
        3  |  6:54.07 |  3:37.35 |     31057    |    47366
        4  | 10:31.42 |  3:26.27 |     47367    |    62843
        5  | 13:57.69 |  3:33.57 |     62844    |    78875
        6  | 17:31.51 |  3:46.14 |     78876    |    95839
        7  | 21:17.65 |  3:03.04 |     95840    |   109568
        8  | 24:20.69 |  4:52.62 |    109569    |   131530
        9  | 29:13.56 |  3:00.45 |    131531    |   145075
       10  | 32:14.26 |  2:42.26 |    145076    |   157251
       11  | 34:56.52 |  3:59.21 |    157252    |   175197
       12  | 38:55.73 |  3:32.55 |    175198    |   191152
       13  | 42:28.53 |  3:26.06 |    191153    |   206608
       14  | 45:54.59 |  3:21.27 |    206609    |   221710
       15  | 49:16.11 |  3:53.63 |    221711    |   239248
       16  | 53:09.74 |  2:32.66 |    239249    |   250714
       17  | 55:42.65 |  3:42.54 |    250715    |   267418
       18  | 59:25.44 |  3:13.41 |    267419    |   281934
       19  | 62:39.10 |  2:37.52 |    281935    |   293761
       20  | 65:16.62 |  3:26.15 |    293762    |   309226
       21  | 68:43.02 |  3:24.61 |    309227    |   324587
       22  | 72:07.63 |  3:53.45 |    324588    |   342107
       23  | 76:01.33 |  2:56.65 |    342108    |   355372
Track  1
     Filename C:\VA-NRJ_Music_Awards_2015-(5054196827724)-2CD-FLAC-2015-1nDD\(201) [Justin Bieber] What Do You Mean.wav
     Pre-gap length  0:00:02.00
     Peak level 83.9 %
     Extraction speed 2.2 X
     Track quality 99.9 %
     Test CRC 6DF3B248
     Copy CRC 6DF3B248
     Track not present in AccurateRip database
     Copy OK
Track  2
     Filename C:\VA-NRJ_Music_Awards_2015-(5054196827724)-2CD-FLAC-2015-1nDD\(202) [David Guetta & Showtek Feat. MAGIC! & Sonny Wilson] Sun Goes Down.wav
     Peak level 64.8 %
     Extraction speed 3.1 X
     Track quality 100.0 %
     Test CRC 1159B47E
     Copy CRC 1159B47E
     Track not present in AccurateRip database
     Copy OK
Track  3
     Filename C:\VA-NRJ_Music_Awards_2015-(5054196827724)-2CD-FLAC-2015-1nDD\(203) [Rihanna] Bitch Better Have My Money.wav
     Peak level 80.9 %
     Extraction speed 2.6 X
     Track quality 99.9 %
     Test CRC 4BE122A2
     Copy CRC 4BE122A2
     Track not present in AccurateRip database
     Copy OK
Track  4
     Filename C:\VA-NRJ_Music_Awards_2015-(5054196827724)-2CD-FLAC-2015-1nDD\(204) [Nicky Jam & Enrique Iglesias] El Perdón.wav
     Peak level 85.0 %
     Extraction speed 3.5 X
     Track quality 100.0 %
     Test CRC B3B8368A
     Copy CRC B3B8368A
     Track not present in AccurateRip database
     Copy OK
Track  5
     Filename C:\VA-NRJ_Music_Awards_2015-(5054196827724)-2CD-FLAC-2015-1nDD\(205) [Black M Feat. Kev Adams] Le Prince Aladin.wav
     Peak level 100.0 %
     Extraction speed 2.8 X
     Track quality 99.9 %
     Test CRC 4CFE3EBA
     Copy CRC 4CFE3EBA
     Track not present in AccurateRip database
     Copy OK
Track  6
     Filename C:\VA-NRJ_Music_Awards_2015-(5054196827724)-2CD-FLAC-2015-1nDD\(206) [R.City Feat. Adam Levine] Locked Away.wav
     Peak level 89.6 %
     Extraction speed 3.9 X
     Track quality 100.0 %
     Test CRC A2895290
     Copy CRC A2895290
     Track not present in AccurateRip database
     Copy OK
Track  7
     Filename C:\VA-NRJ_Music_Awards_2015-(5054196827724)-2CD-FLAC-2015-1nDD\(207) [Louane] Avenir.wav
     Peak level 98.7 %
     Extraction speed 3.9 X
     Track quality 100.0 %
     Test CRC 3AA5C3E6
     Copy CRC 3AA5C3E6
     Track not present in AccurateRip database
     Copy OK
Track  8
     Filename C:\VA-NRJ_Music_Awards_2015-(5054196827724)-2CD-FLAC-2015-1nDD\(208) [Macklemore & Ryan Lewis Feat. Eric Nally, Melle Mel, Kool Moe Dee & Grandmaster Caz] Downtown.wav
     Peak level 85.0 %
     Extraction speed 3.6 X
     Track quality 99.9 %
     Test CRC E8C00F6C
     Copy CRC E8C00F6C
     Track not present in AccurateRip database
     Copy OK
Track  9
     Filename C:\VA-NRJ_Music_Awards_2015-(5054196827724)-2CD-FLAC-2015-1nDD\(209) [Soprano] Millionnaire.wav
     Peak level 99.9 %
     Extraction speed 3.2 X
     Track quality 99.9 %
     Test CRC D4697DDA
     Copy CRC D4697DDA
     Track not present in AccurateRip database
     Copy OK
Track 10
     Filename C:\VA-NRJ_Music_Awards_2015-(5054196827724)-2CD-FLAC-2015-1nDD\(210) [Pharrell Williams] Freedom.wav
     Peak level 100.0 %
     Extraction speed 3.1 X
     Track quality 99.9 %
     Test CRC 410F5118
     Copy CRC 410F5118
     Track not present in AccurateRip database
     Copy OK
Track 11
     Filename C:\VA-NRJ_Music_Awards_2015-(5054196827724)-2CD-FLAC-2015-1nDD\(211) [Josef Salvat] Open Season.wav
     Peak level 85.0 %
     Extraction speed 4.7 X
     Track quality 100.0 %
     Test CRC 9B533AA4
     Copy CRC 9B533AA4
     Track not present in AccurateRip database
     Copy OK
Track 12
     Filename C:\VA-NRJ_Music_Awards_2015-(5054196827724)-2CD-FLAC-2015-1nDD\(212) [Demi Lovato] Cool For The Summer.wav
     Peak level 99.9 %
     Extraction speed 4.8 X
     Track quality 100.0 %
     Test CRC 97779275
     Copy CRC 97779275
     Track not present in AccurateRip database
     Copy OK
Track 13
     Filename C:\VA-NRJ_Music_Awards_2015-(5054196827724)-2CD-FLAC-2015-1nDD\(213) [Jason Derulo] Want To Want Me.wav
     Peak level 99.9 %
     Extraction speed 4.9 X
     Track quality 100.0 %
     Test CRC AF42F90A
     Copy CRC AF42F90A
     Track not present in AccurateRip database
     Copy OK
Track 14
     Filename C:\VA-NRJ_Music_Awards_2015-(5054196827724)-2CD-FLAC-2015-1nDD\(214) [Shy'M] Il faut vivre.wav
     Peak level 100.0 %
     Extraction speed 5.0 X
     Track quality 100.0 %
     Test CRC 82B1BB01
     Copy CRC 82B1BB01
     Track not present in AccurateRip database
     Copy OK
Track 15
     Filename C:\VA-NRJ_Music_Awards_2015-(5054196827724)-2CD-FLAC-2015-1nDD\(215) [Maroon 5] Sugar.wav
     Peak level 99.9 %
     Extraction speed 5.2 X
     Track quality 100.0 %
     Test CRC 0EFEC457
     Copy CRC 0EFEC457
     Track not present in AccurateRip database
     Copy OK
Track 16
     Filename C:\VA-NRJ_Music_Awards_2015-(5054196827724)-2CD-FLAC-2015-1nDD\(216) [Maude] Drinks Up.wav
     Peak level 85.0 %
     Extraction speed 5.0 X
     Track quality 100.0 %
     Test CRC 7E0A874A
     Copy CRC 7E0A874A
     Track not present in AccurateRip database
     Copy OK
Track 17
     Filename C:\VA-NRJ_Music_Awards_2015-(5054196827724)-2CD-FLAC-2015-1nDD\(217) [Flo Rida Feat. Verdine White] I Don't Like It, I Love It.wav
     Peak level 84.5 %
     Extraction speed 5.4 X
     Track quality 100.0 %
     Test CRC C7ED5FD3
     Copy CRC C7ED5FD3
     Track not present in AccurateRip database
     Copy OK
Track 18
     Filename C:\VA-NRJ_Music_Awards_2015-(5054196827724)-2CD-FLAC-2015-1nDD\(218) [Eva Simons Feat. Konshens] Policeman.wav
     Peak level 69.6 %
     Extraction speed 4.0 X
     Track quality 99.9 %
     Test CRC 61518E0F
     Copy CRC 61518E0F
     Track not present in AccurateRip database
     Copy OK
Track 19
     Filename C:\VA-NRJ_Music_Awards_2015-(5054196827724)-2CD-FLAC-2015-1nDD\(219) [Sigala] Easy Love.wav
     Peak level 74.3 %
     Extraction speed 3.8 X
     Track quality 99.9 %
     Test CRC 048D8598
     Copy CRC 048D8598
     Track not present in AccurateRip database
     Copy OK
Track 20
     Filename C:\VA-NRJ_Music_Awards_2015-(5054196827724)-2CD-FLAC-2015-1nDD\(220) [Keen'V] Un monde meilleur.wav
     Peak level 88.0 %
     Extraction speed 4.3 X
     Track quality 99.9 %
     Test CRC BA43724D
     Copy CRC BA43724D
     Track not present in AccurateRip database
     Copy OK
Track 21
     Filename C:\VA-NRJ_Music_Awards_2015-(5054196827724)-2CD-FLAC-2015-1nDD\(221) [Avicii] For A Better Day.wav
     Peak level 81.0 %
     Extraction speed 4.4 X
     Track quality 99.9 %
     Test CRC 020E191E
     Copy CRC 020E191E
     Track not present in AccurateRip database
     Copy OK
Track 22
     Filename C:\VA-NRJ_Music_Awards_2015-(5054196827724)-2CD-FLAC-2015-1nDD\(222) [Christine And The Queens] Christine.wav
     Peak level 85.0 %
     Extraction speed 6.0 X
     Track quality 100.0 %
     Test CRC D03AB7E4
     Copy CRC D03AB7E4
     Track not present in AccurateRip database
     Copy OK
Track 23
     Filename C:\VA-NRJ_Music_Awards_2015-(5054196827724)-2CD-FLAC-2015-1nDD\(223) [Major Lazer x DJ Snake Feat. MØ] Lean On.wav
     Peak level 77.9 %
     Extraction speed 5.7 X
     Track quality 100.0 %
     Test CRC 67A6D244
     Copy CRC 67A6D244
     Track not present in AccurateRip database
     Copy OK
None of the tracks are present in the AccurateRip database
No errors occurred
End of status report
---- CUETools DB Plugin V2.1.6
[CTDB TOCID: qohbOtZ6wsNbQ3HqpGbzhSL9ZwM-] disk not present in database
Submit result: qohbOtZ6wsNbQ3HqpGbzhSL9ZwM- has been uploaded
==== Log checksum 0518F2550FAB1B121C99F1F10A03184EA5F631A1C309FB4C4F2E96B8A48ED2E4 ====

=========================
百度下载:
游客,如果您要查看本帖隐藏内容请回复


115下载:
游客,如果您要查看本帖隐藏内容请回复
来自群组: 欧美流行



上一篇:法新爵士香颂灵魂:Zaz《Sur la route》2015/FLAC/BD+115
下一篇:加拿大人声爵士流行:Wendy Lands《Altitude》2015/FLAC/BD+115
关于链接失效的说明(度盘+115盘+快传 好友分享的说明)
http://www.cdbao.net/thread-117499-1-1.html     
紧急通告:115,快传等网盘取消了分享功能礼包码链接全部失效
http://www.cdbao.net/thread-122759-1-1.html

0

主题

5

帖子

60

积分

新人会员,请认真回复,若恶意回复,直接封号

Rank: 1

积分
60

社区QQ达人

发表于 2015-12-2 11:41:16 | 显示全部楼层
提示: 该帖被管理员或版主屏蔽

0

主题

249

帖子

360

积分

乐坛新星

Rank: 2

积分
360

社区QQ达人

发表于 2015-12-2 14:36:14 | 显示全部楼层
好音乐不用多说,下来听听再说。

0

主题

1674

帖子

2200

积分

当红偶像

Rank: 4

积分
2200

社区QQ达人

发表于 2015-12-2 14:53:02 | 显示全部楼层
这是好音乐    不错  来一个{:7_191:}

10

主题

226

帖子

3159

积分

当红偶像

Rank: 4

积分
3159

社区QQ达人

发表于 2015-12-2 15:54:13 | 显示全部楼层
法国格莱美~真牛,这个都有喜欢~

0

主题

84

帖子

99

积分

新人会员,请认真回复,若恶意回复,直接封号

Rank: 1

积分
99
发表于 2015-12-2 20:51:14 | 显示全部楼层
气声唱法的高手,小嗓门也有大声音

16

主题

461

帖子

379

积分

乐坛新星

Rank: 2

积分
379

社区QQ达人

发表于 2015-12-2 21:57:18 | 显示全部楼层
Great music and performers. Can't wait to download and listen. Thanks.

0

主题

47

帖子

109

积分

新人会员,请认真回复,若恶意回复,直接封号

Rank: 1

积分
109

社区QQ达人

发表于 2015-12-2 23:24:03 | 显示全部楼层
好多人的诶,不用挨个去找了,NRJ奖真不错

0

主题

77

帖子

288

积分

乐坛新星

Rank: 2

积分
288

社区QQ达人

发表于 2015-12-3 08:39:53 | 显示全部楼层
里面好多歌曲都喜欢,谢谢了。。。。。。

1

主题

527

帖子

672

积分

职业歌手

Rank: 3Rank: 3

积分
672

社区QQ达人

发表于 2015-12-3 22:36:10 | 显示全部楼层
试听感觉还不错 其余的下来再听听 LZ辛苦了 THX.

0

主题

868

帖子

1525

积分

当红偶像

Rank: 4

积分
1525
发表于 2015-12-4 12:47:20 | 显示全部楼层
相当给力的沙发!多谢分享精彩音乐大包!

0

主题

451

帖子

864

积分

职业歌手

Rank: 3Rank: 3

积分
864
发表于 2015-12-5 12:04:36 | 显示全部楼层
每年必收的一个年度精选,赞一个
integral

0

主题

330

帖子

551

积分

职业歌手

Rank: 3Rank: 3

积分
551

社区QQ达人

发表于 2015-12-6 11:58:44 | 显示全部楼层
这系列与NOW都是热门单曲精选,但好像NOW选歌范围更广些。

管理员已阅至此楼

0

主题

580

帖子

716

积分

职业歌手

Rank: 3Rank: 3

积分
716
发表于 2015-12-7 00:57:37 | 显示全部楼层
精选专辑,好听,谢谢楼主分享!
integral

1

主题

67

帖子

799

积分

职业歌手

Rank: 3Rank: 3

积分
799

社区QQ达人

发表于 2015-12-8 20:29:40 | 显示全部楼层
第一串烧就不错,非常想看现场啊
您需要登录后才可以回帖 登录 | 注册

本版积分规则

快速回复 返回顶部 返回列表