查看: 6899|回复: 4

[华语] G.E.M.邓紫棋《新的心跳》2015/台版原抓WAV/整轨/CUE/LOG/BD

[复制链接]
 成长值: 18725

390

主题

430

帖子

3万

积分

音乐总监

Rank: 15Rank: 15Rank: 15Rank: 15Rank: 15

积分
33041
发表于 2015-11-15 18:18:40 | 显示全部楼层 |阅读模式

注册会员,获得无损资源下载地址,享受高品质音乐。

您需要 登录 才可以下载或查看,没有帐号?注册

x


IMG_1291.JPG IMG_1292.JPG


专辑:新的心跳
艺人:G.E.M.邓紫棋
语种:国语
唱片公司:蜂鸟音乐
发行时间:2015年11月06日
专辑类别:录音室专辑


专辑介绍:

暌违三年,褪去青涩,已然成熟的G.E.M. 交出这张《新的心跳》; 新的心跳,带来新的声音、新的感触;对过去说再见,她带着轻盈的脚步向着前方的一束光迈进。

《新的心跳》是邓紫棋的第五张专辑,蕴酿三年的制作过程,十首新作,所有词曲由G.E.M.个人创作。以打破传统宣传发行的模式,实体专辑发布前便已在各大网络平台上推出十首单曲及MV,更邀得国际精英导演为所有单曲量身定制MV。视听合一,让听众打开全部感官,自由地接收和体会每一首歌。

一种新的方式,一场新的体验。这是G.E.M.邓紫棋的首张视听专辑, “新的心跳”。


专辑曲目:
01 多远都要在一起
02 再见
03 新的心跳
04 来自天堂的魔鬼
05 盲点
06 单行的轨道
07 一路逆风
08 于是
09 瞬间
10 查克靠近



Exact Audio Copy V1.1 from 23. June 2015

EAC 抓取日志文件从14. 十一月 2015, 21:53

鄧紫棋 / 新的心跳

使用驱动器  :HL-DT-STDVDRAM GUA0N   Adapter: 1  ID: 0

读取模式      : 可靠Secure
使用精确流     : 是
清空音频缓存    : 是
使用 C2 指示器 : 否

读取偏移校正:               : 0
读取 Lead-In 和 Lead-Out : 否
用静音填充抓取中丢失偏移的采样       : 是
去除首尾静音块               : 否
在CRC 计算中使用了空样本       : 是
已用接口                  : Win NT 及 2000 本地 Win32 接口

所用输出模式: : 内部 WAV 函数
样本格式    : 44.100 Hz; 16 Bit; 立体声


已抓取 CD 的 TOC

     音轨 |    起始    |    长度    |  起始扇区  |  结束扇区  
    --------------------------------------------
      1 |  0:00.00 |  3:36.66 |      0 |  16265
      2 |  3:36.66 |  3:26.04 |  16266 |  31719
      3 |  7:02.70 |  3:37.59 |  31720 |  48053
      4 | 10:40.54 |  4:05.37 |  48054 |  66465
      5 | 14:46.16 |  3:46.61 |  66466 |  83476
      6 | 18:33.02 |  4:08.65 |  83477 | 102141
      7 | 22:41.67 |  3:45.60 | 102142 | 119076
      8 | 26:27.52 |  3:49.66 | 119077 | 136317
      9 | 30:17.43 |  4:06.06 | 136318 | 154773
     10 | 34:23.49 |  4:20.73 | 154774 | 174346


范围状态及错误

已选择范围

     文件名 E:\鄧紫棋 - 新的心跳.wav

     峰值电平 100.0 %
     抓取速度 1.7 X
     范围质量 99.9 %
     复制 CRC 3E37EF2B
     复制成功

没有错误发生

状态报告结尾

---- CUETools DB Plugin V2.1.6

[CTDB TOCID: op4PSn5DQM8syZE9MgicZkFVFXM-] found
Submit result: op4PSn5DQM8syZE9MgicZkFVFXM- has been confirmed
Track | CTDB Status
  1   | (15/15) Accurately ripped
  2   | (15/15) Accurately ripped
  3   | (15/15) Accurately ripped
  4   | (15/15) Accurately ripped
  5   | (15/15) Accurately ripped
  6   | (15/15) Accurately ripped
  7   | (15/15) Accurately ripped
  8   | (15/15) Accurately ripped
  9   | (15/15) Accurately ripped
10   | (15/15) Accurately ripped

专辑链接:
游客,如果您要查看本帖隐藏内容请回复



上一篇:原碟自抓:泰妍《I - The 1st Mini Album - EP》2015/WAV/整轨+LOG/BD
下一篇:原碟自抓:陶喆《同名专辑》1997/WAV/整轨//CUE/LOG/BD
 成长值: 19575

6461

主题

1万

帖子

8万

积分

音乐掌门人

Rank: 20Rank: 20Rank: 20Rank: 20Rank: 20

积分
83676

名人勋章社区QQ达人分享勋章精华帖达人灌水勋章

发表于 2015-11-17 23:50:59 | 显示全部楼层
那张后背的照片不错。。。
关于链接失效的说明(度盘+115盘+快传 好友分享的说明)
http://www.cdbao.net/thread-117499-1-1.html     
紧急通告:115,快传等网盘取消了分享功能礼包码链接全部失效
http://www.cdbao.net/thread-122759-1-1.html

270

主题

689

帖子

9万

积分

乐坛教父

Rank: 8Rank: 8

积分
95996

社区QQ达人

发表于 2015-12-6 01:52:56 | 显示全部楼层
顶楼上~~                                                   

0

主题

14

帖子

818

积分

新人会员,请认真回复,若恶意回复,直接封号

Rank: 1

积分
818
发表于 2015-12-21 10:22:06 | 显示全部楼层
邓紫棋也玩性感了。谢谢分享。
 成长值: 90

0

主题

109

帖子

171

积分

VIP1

Rank: 4

积分
171
发表于 2016-11-26 00:19:43 | 显示全部楼层
她的歌还是不错的,感谢楼主分享!
您需要登录后才可以回帖 登录 | 注册

本版积分规则

快速回复 返回顶部 返回列表