查看: 9139|回复: 141

[其他] 2015中国抗战胜利70周年阅兵 HDTV/1080I/MPEG-TS/磁力+百度

  [复制链接] [已阅至12楼]
 成长值: 21769

1793

主题

2165

帖子

11万

积分

音乐总监

Rank: 15Rank: 15Rank: 15Rank: 15Rank: 15

积分
119670

社区QQ达人

发表于 2015-9-4 06:21:52 | 显示全部楼层 |阅读模式

注册会员,获得无损资源下载地址,享受高品质音乐。

您需要 登录 才可以下载或查看,没有帐号?注册

x
本帖最后由 醉耳 于 2015-9-4 08:21 编辑










1.jpg
2.jpg
3.jpg
4.jpg
5.jpg
6.jpg



胜利的号角 和平的宣示——习近平主席检阅胜利日阅兵受阅部队侧记
新华网北京9月3日电 岁月的指针,指向2015年9月3日。北京,天阔云舒,旗帜飞扬。
上午10时20分许,高亢嘹亮的检阅号角响起,红旗牌检阅车驶出天安门,习近平主席站在检阅车中央,向着受阅部队驶去。
这是新中国成立以来首次以纪念中国人民抗日战争暨世界反法西斯战争胜利为主题举行阅兵;这是习近平主席第一次在天安门广场检阅共和国武装力量。
特殊的时空节点,唤起深沉的历史记忆。70年前的今天,中华民族以伤亡3500万军民的惨重代价,打败了穷凶极恶的日本军国主义侵略者,赢得了近代以来反抗外敌入侵的第一次完全胜利。70年后的今天,抗战的歌声仍然回荡在这片浸润着英烈鲜血的热土上,胜利的豪情依然洋溢在亿万军民的胸间。
此刻,东长安街上,三军肃立,铁甲生辉;华北地区8个机场上空,陆海空军近200架战鹰起飞编队,列阵蓝天……
检阅车驶过金水桥,阅兵总指挥、北京军区司令员宋普选驱车上前报告:“主席同志,受阅部队准备完毕,请您检阅!”
“开始!”
随着一声令下,千人军乐团奏响激昂的《检阅进行曲》。迎着金色的阳光,习主席乘检阅车向东驶去……
“同志们好——”“首长好!”
“同志们辛苦了——”“为人民服务!”
习主席的亲切问候和受阅官兵的响亮回答,汇聚成历史与现实的交响。
从九一八事变奋起抗击揭开世界反法西斯战争序幕,到七七事变全国抗战开辟东方主战场,历经14年艰苦卓绝的浴血奋战,中华民族为最终战胜法西斯作出不可磨灭的历史贡献。
“风在吼,马在叫,黄河在咆哮,黄河在咆哮……”民族危亡关头,中国共产党高擎全民族抗战旗帜,不畏艰险、砥柱中流,支撑起救亡图存的希望。八路军、新四军、东北抗联、华南游击队,党领导的一支支抗日武装奔赴疆场,用血肉之躯筑起保卫家乡、保卫祖国的钢铁长城。
方阵巍巍,战旗猎猎。70面鲜红的荣誉旗帜,像一束束燃烧的火炬,激励着英模部队官兵弘扬抗战精神、永葆传统本色,争做“四有”新一代革命军人。“狼牙山五壮士”、“平型关大战突击连”、百团大战“白刃格斗英雄连”、夜袭阳明堡“战斗模范连”……每一个番号都传承着历久弥新的英雄精神,每一面旗帜都传颂着荡气回肠的英雄壮歌。先烈回眸应笑慰,擎旗自有后来人。演兵场上真打实备,战备执勤枕戈待旦,科研战线拼搏攻关,救灾现场出生入死……今天,赓续红色基因的人民子弟兵用实际行动,向党和人民交上合格的答卷……
视频信息
General
Kang.Zhang.Sheng.Li70th.2015.HDTV.1080I.MPEG2-MTeamTV.ts
Format                         : MPEG-TS
File size                      : 5.38 GiB
Duration                       : 1h 41mn
Overall bit rate mode          : Variable
Overall bit rate               : 7 605 Kbps
Video
ID                             : 1282 (0x502)
Menu ID                        : 450 (0x1C2)
Format                         : AVC
Format/Info                    : Advanced Video Codec
Format profile                 : [email protected]
Format settings, CABAC         : Yes
Format settings, ReFrames      : 3 frames
Format settings, GOP           : M=3, N=24
Codec ID                       : 27
Duration                       : 1h 41mn
Bit rate mode                  : Constant
Bit rate                       : 7 200 Kbps
Maximum bit rate               : 17.9 Mbps
Width                          : 1 920 pixels
Height                         : 1 080 pixels
Display aspect ratio           : 16:9
Frame rate                     : 25.000 fps
Color space                    : YUV
Chroma subsampling             : 4:2:0
Bit depth                      : 8 bits
Scan type                      : Interlaced
Scan order                     : Top Field First
Bits/(Pixel*Frame)             : 0.139
Stream size                    : 5.02 GiB (93%)
Color range                    : Limited
Color primaries                : BT.709
Transfer characteristics       : BT.709
Matrix coefficients            : BT.709
Audio
ID                             : 1283 (0x503)
Menu ID                        : 450 (0x1C2)
Format                         : AC-3
Format/Info                    : Audio Coding 3
Mode extension                 : CM (complete main)
Format settings, Endianness    : Big
Codec ID                       : 6
Duration                       : 1h 41mn
Bit rate mode                  : Constant
Bit rate                       : 128 Kbps
Maximum bit rate               : 504 Kbps
Channel(s)                     : 2 channels
Channel positions              : Front: L R
Sampling rate                  : 48.0 KHz
Compression mode               : Lossy
Delay relative to video        : -367ms
Stream size                    : 92.7 MiB (2%)
Language                       : English
Menu
ID                             : 1280 (0x500)
Menu ID                        : 450 (0x1C2)
Duration                       : 1h 41mn
List                           : 1282 (0x502) (AVC) / 1283 (0x503) (AC-3, English)
Language                       :  / English
Maximum bit rate               : 18428000

资源来自网络  醉耳整理上传
如喜欢请支持正版!
如本人所发资源有被和谐失效的
请用站内信告知我会尽快补档
解压密码:www.cdbao.net
下载地址:
回复后:帖子靛青色部分为磁力下载,
蓝底色为百度云盘下载地址。
百度下载更详细一些包括10时前的部分及视频最后的介绍

游客,如果您要查看本帖隐藏内容请回复







评分

参与人数 1CD +400 包子 +10 收起 理由
最终之战 + 400 + 10 很棒的帖子,支持

查看全部评分




上一篇:徐怀钰-我是女生[480P/VOB/368M/115]
下一篇:2015香港小姐竞选决赛.Miss.Hong.Kong.Pageant.2015.HD1080P.X264.AAC
不追新 不赶潮 只爱经典好声音

0

主题

294

帖子

455

积分

职业歌手

Rank: 3Rank: 3

积分
455

社区QQ达人

发表于 2015-9-4 06:43:47 | 显示全部楼层
值得永久收藏的好影像,多谢分享!
 成长值: 19605

6487

主题

1万

帖子

8万

积分

音乐掌门人

Rank: 20Rank: 20Rank: 20Rank: 20Rank: 20

积分
83929

名人勋章社区QQ达人分享勋章精华帖达人灌水勋章

发表于 2015-9-4 06:46:58 | 显示全部楼层
这个是必须有的
关于链接失效的说明(度盘+115盘+快传 好友分享的说明)
http://www.cdbao.net/thread-117499-1-1.html     
紧急通告:115,快传等网盘取消了分享功能礼包码链接全部失效
http://www.cdbao.net/thread-122759-1-1.html

0

主题

69

帖子

686

积分

职业歌手

Rank: 3Rank: 3

积分
686

社区QQ达人

发表于 2015-9-4 07:23:23 | 显示全部楼层
呵呵,这么快就有了值得珍藏。

9

主题

345

帖子

1954

积分

当红偶像

Rank: 4

积分
1954
发表于 2015-9-4 08:52:05 | 显示全部楼层
谢谢醉耳。这是非常值得收藏的资源。

0

主题

532

帖子

1548

积分

当红偶像

Rank: 4

积分
1548
发表于 2015-9-4 09:12:21 | 显示全部楼层
Long live China, it is worth to have it and really a big big recall what happened in the past. Special salute to those solders who still alive.

0

主题

873

帖子

1896

积分

当红偶像

Rank: 4

积分
1896
发表于 2015-9-4 10:03:29 | 显示全部楼层
昨天才检阅,今天就出来高清的视频,赞一个!

0

主题

87

帖子

234

积分

乐坛新星

Rank: 2

积分
234

社区QQ达人

发表于 2015-9-4 10:17:52 | 显示全部楼层
值得永久收藏的好影像,多谢分享!

0

主题

135

帖子

223

积分

乐坛新星

Rank: 2

积分
223
发表于 2015-9-4 10:42:41 | 显示全部楼层
值得珍藏,赶快。不知道目前有几个版本。

0

主题

8

帖子

76

积分

新人会员,请认真回复,若恶意回复,直接封号

Rank: 1

积分
76
发表于 2015-9-4 10:46:31 | 显示全部楼层
就爱看1080p高清的,听说youtube上才有,赞一个

0

主题

109

帖子

870

积分

职业歌手

Rank: 3Rank: 3

积分
870

社区QQ达人

发表于 2015-9-4 10:55:19 | 显示全部楼层
为军人加油   为祖国加油!

感谢资源!

0

主题

297

帖子

618

积分

职业歌手

Rank: 3Rank: 3

积分
618
发表于 2015-9-4 12:06:48 | 显示全部楼层
这个确实值得拥有,三十年前的84年阅兵就没有这种资源了,那时更震撼,更多的方队。
管理员已阅至此楼

0

主题

167

帖子

360

积分

乐坛新星

Rank: 2

积分
360
发表于 2015-9-4 12:37:57 | 显示全部楼层
非常震撼的一次阅兵,为国家骄傲,为祖国自豪,我是中国人!

0

主题

5

帖子

66

积分

新人会员,请认真回复,若恶意回复,直接封号

Rank: 1

积分
66
发表于 2015-9-4 13:52:46 | 显示全部楼层
很好,很开心,没想这么快就能下载,谢谢

0

主题

2

帖子

65

积分

新人会员,请认真回复,若恶意回复,直接封号

Rank: 1

积分
65

社区QQ达人

发表于 2015-9-4 14:06:55 | 显示全部楼层
和平万岁!祖国万岁!人民万岁!
您需要登录后才可以回帖 登录 | 注册

本版积分规则

快速回复 返回顶部 返回列表