查看: 2074|回复: 77

VA《2015 GRAMMY Nominees》2015/FLAC/BD+115

[复制链接] [已阅至37楼]
 成长值: 19665

6547

主题

1万

帖子

8万

积分

音乐掌门人

Rank: 20Rank: 20Rank: 20Rank: 20Rank: 20

积分
84446

名人勋章社区QQ达人分享勋章精华帖达人灌水勋章

发表于 2015-7-20 09:04:57 | 显示全部楼层 |阅读模式

注册会员,获得无损资源下载地址,享受高品质音乐。

您需要 登录 才可以下载或查看,没有帐号?注册

x
folder.jpg

Various Artists - 2015 GRAMMY Nominees


艺人:         Various Artists
语种:         英语
唱片公司:         The Recording Academy
发行时间:         2015年01月20日
专辑类别:         合集、杂锦
专辑风格:         欧美流行 Western Pop


Жанр: Pop, rock, country, r&b, top
Носитель: CD
Год издания: 2015
Издатель (лейбл): RCA Records
Аудиокодек: FLAC (*.flac)
Тип рипа: tracks+.cue
Битрейт аудио: lossless
Продолжительность: 01:15:55


01. Taylor Swift - Shake It Off (3:40)
02. Iggy Azalea - Fancy (Feat. Charli XCX) (3:18)
03. Ed Sheeran - Sing (3:54)
04. Ariana Grande - Problem (Feat. Iggy Azalea) (3:14)
05. Meghan Trainor - All About That Bass (3:09)
06. Katy Perry - Dark Horse (Feat. Juicy J) (3:36)
07. Coldplay - A Sky Full Of Stars (3:57)
08. Miley Cyrus - Wrecking Ball (3:43)
09. Sia - Chandelier (3:37)
10. John Legend - All Of Me (Live) (5:00)
11. Hozier - Take Me To Church (4:03)
12. Beyoncé - Drunk In Love (Feat. Jay-Z) (5:25)
13. Pharrell Williams - Come Get It Bae (3:23)
14. Sam Smith - Stay With Me (Darkchild Version) (2:53)
15. Beck - Blue Moon (4:01)
16. Keith Urban - Raise 'em Up (Feat. Eric Church) (3:04)
17. The Band Perry - Gentle On My Mind (3:10)
18. Tim McGraw - Meanwhile Back At Mama's (Feat. Faith Hill) (3:48)
19. Miranda Lambert - Somethin' Bad (duet with Carrie Underwood) (2:50)
20. Little Big Town - Day Drinking (2:59)
21. Pharrell Williams - Happy (Live) (3:22)


Various Artists专辑介绍:
2015第57届格莱美奖专题:
2015第57届格莱美奖提名精选集:
综合、流行、摇滚、另类音乐类 , R&B、饶舌、舞曲类 , 乡村、美式根源音乐类

西洋乐界年度盛事 流行歌坛绝对指标
◎强力聚焦「年度唱片」、「年度专辑」、「年度单曲」、「最佳流行歌手」、「最佳乡村重唱/团体演出」等第57届葛莱美奖入围名单金曲合辑
◎泰勒丝、碧昂丝、凯蒂佩芮、菲董、希雅、酷玩乐团、麦莉、约翰传奇、红发艾德、梅根崔娜、亚莉安娜、山姆史密斯等共21首全面对决爆满容量,你才是葛莱美大赢家

一年就等这一张,集结重量级艺人/团体,打造坚强全明星阵容,叱吒排行各榜的畅销单曲精彩收录。西洋音乐界年度盛事,也是绝对指标的葛莱美音乐奖,于2015年2月8日举行第57届颁奖典礼,挑选入围名单中21首金曲的喝采圣碟《2015 GrammyRNominees》,一网打尽菲董、泰勒丝、碧昂丝、凯蒂佩芮、希雅、酷玩乐团、麦莉、约翰传奇…等超强主打之外,就连伊姬阿洁莉亚、梅根崔娜、亚莉安娜、山姆史密斯、赫齐尔…等耀眼新秀也一併推荐!〈内附英文歌词〉

1.TAYLOR SWIFT – SHAKE IT OFF 泰勒丝/通通甩掉 入围【年度唱片】【年度单曲】【最佳流行歌手】
国民小公主泰勒丝首週空降告示牌单曲榜冠军,摘下72国iTunes排行后冠

2.IGGY AZALEA FT. CHARLI XCX – FANCY 伊姬阿洁莉亚与查莉/我超美丽 入围【年度唱片】
澳洲呛妹伊姬阿洁莉亚+英国酷娃查莉全美嘻哈/饶舌榜分霸16和18週冠军

3.ED SHEERAN – SING 红髮艾德/一起唱 入围【年度专辑】【最佳流行演唱专辑】
英国创作才子红髮艾德和鬼才菲董共同打造欢乐单曲,荣登英国冠军

4.ARIANA GRANDE FT. IGGY AZALEA – PROBLEM 亚莉安娜与伊姬阿洁莉亚/爱情麻烦 入围【最佳流行演唱专辑】
横扫全球超级新人亚莉安娜+嘻哈冠军靓女伊姬阿洁莉亚携手制霸65国冠军

5.MEGHAN TRAINOR – ALL ABOUT THAT BASS 梅根崔娜/棉花糖女孩 入围【年度唱片】【年度单曲】
2014爆红新人王洗脑58国排行冠军,入选PopMatters「2014最佳75首单曲」

6.KATY PERRY FT. JUICY J – DARK HORSE 凯蒂佩芮/黑马 入围【最佳流行演唱专辑】
花边教主凯蒂佩芮与南岸饶舌Three 6 Mafia开山祖Juicy J,全球800万销量

7.COLDPLAY – A SKY FULL OF STARS 酷玩乐团/繁星 入围【最佳流行演唱专辑】
英伦摇滚天团酷玩乐团创下iTunes上架不到24小时即拿下87国冠军纪录

8.MILEY CYRUS – WRECKING BALL 麦莉/爱情破坏球 入围【最佳流行演唱专辑】
生涯首支美国冠军单曲,iTunes榜50国冠军,MV至今已破7亿次点阅

9.SIA – CHANDELIER 希雅/寂寞水晶灯 入围【年度唱片】【年度单曲】【最佳流行歌手】
天后天王指定合作「神级创作才女」希雅,衝上美国第8名,大破百万销售

10.JOHN LEGEND – ALL OF ME (LIVE) 约翰传奇/一生所爱(现场版) 入围【最佳流行歌手】
缔造生涯首支美国冠军曲,特别以现场演出版本提名葛莱美

11.HOZIER – TAKE ME TO CHURCH 赫齐尔/带我到教堂 入围【年度单曲】
爱尔兰民谣歌手赫齐尔,告示牌流行榜亚军+摇滚和成人另类歌曲双榜冠军

12.BEYONCE FT. JAY Z – DRUNK IN LOVE 碧昂丝与杰斯/醉爱 入围【年度专辑】
碧昂丝和老公杰斯晒恩爱大作,美国流行榜亚军+节奏蓝调/嘻哈榜冠军

13.PHARRELL WILLIAMS – COME GET IT BAE 菲董/来爱我 入围【年度专辑】
畅销金曲鬼才菲董,话题小天后麦莉站台,美国节奏蓝调/嘻哈榜第5名

14.SAM SMITH – STAY WITH ME (DARKCHILD VERSION) 山姆史密斯/陪在我身边
入围【年度唱片】【年度专辑】【年度单曲】【最佳流行歌手】【最佳流行演唱专辑】
BBC「2014年度新声」冠军的山姆史密斯,稳坐英国冠军+美国亚军

15.BECK – BLUE MOON 贝克/蓝月 入围【年度专辑】
音乐拼贴美学大师贝克,滚石杂志四颗半星专辑《Morning Phase》推荐佳作

16.KEITH URBAN FT. ERIC CHURCH – RAISE ’EM UP 齐斯艾本与艾瑞克裘奇/抚养长大
入围【最佳乡村重唱/团体演出】
妮可基嫚老公齐斯艾本+乡村界才子艾瑞克裘奇,联手送出动听抒情小品

17.THE BAND PERRY – GENTLE ON MY MIND 乡村家族乐团/温柔在我心 入围【最佳乡村重唱/团体演出】
拥有精湛歌声乡村家族乐团,纪录片「Glen Campbell:I’ll Be Me」翻唱之作

18.TIM MCGRAW FEAT. FAITH HILL – MEANWHILE BACK AT MAMA’S 提姆麦克罗与费丝希尔/在家乡的时候
入围【最佳乡村重唱/团体演出】
乡村乐坛银色夫妻提姆麦克罗和费丝希尔,共谱乡村榜第7名甜蜜对唱曲

19.MIRANDA LAMBERT WITH CARRIE UNDERWOOD – SOMTHIN’ BAD 米兰达蓝珀特与凯莉安德伍/坏事
入围【最佳乡村重唱/团体演出】
美国乡村乐天后米兰达蓝珀特与甜姐儿凯莉安德伍合作,衝上乡村榜冠军

20.LITTLE BIG TOWN – DAY DRINKING 小城镇乐团/白天来一杯 入围【最佳乡村重唱/团体演出】
轻快旋律加上琅琅上口记忆点,攀上美国乡村榜殿军+加拿大乡村榜冠军

21.PHARRELL WILLIAMS – HAPPY (LIVE) 菲董/快乐(现场版) 入围【最佳流行歌手】
为动画「神偷奶爸2」谱写2014英美年终冠军曲,入围奥斯卡「最佳原创歌曲」


Exact Audio Copy V1.0 beta 3 from 29. August 2011
EAC extraction logfile from 20. January 2015, 20:00
Various Artists / 2015 Grammy Nominees
Used drive  : TSSTcorpDVD-ROM TS-H353B   Adapter: 1  ID: 0
Read mode               : Secure
Utilize accurate stream : Yes
Defeat audio cache      : Yes
Make use of C2 pointers : No
Read offset correction                      : 6
Overread into Lead-In and Lead-Out          : No
Fill up missing offset samples with silence : Yes
Delete leading and trailing silent blocks   : No
Null samples used in CRC calculations       : Yes
Used interface                              : Native Win32 interface for Win NT & 2000
Gap handling                                : Appended to previous track
Used output format              : User Defined Encoder
Selected bitrate                : 128 kBit/s
Quality                         : High
Add ID3 tag                     : No
Command line compressor         : C:\Program Files\Exact Audio Copy\Flac\flac.exe
Additional command line options : -8 -V -T "ARTIST=%artist%" -T "TITLE=%title%" -T "ALBUM=%albumtitle%" -T "DATE=%year%" -T "TRACKNUMBER=%tracknr%" -T "GENRE=%genre%" -T "PERFORMER=%albuminterpret%" -T "COMPOSER=%composer%" %haslyrics%--tag-from-file=LYRICS="%lyricsfile%"%haslyrics% -T "ALBUMARTIST=%albumartist%" -T "DISCNUMBER=%cdnumber%" -T "TOTALDISCS=%totalcds%" -T "TOTALTRACKS=%numtracks%" -T "COMMENT=%comment%" %source% -o %dest%
TOC of the extracted CD
     Track |   Start  |  Length  | Start sector | End sector
    ---------------------------------------------------------
        1  |  0:00.00 |  3:39.41 |         0    |    16465
        2  |  3:39.41 |  3:18.04 |     16466    |    31319
        3  |  6:57.45 |  3:54.34 |     31320    |    48903
        4  | 10:52.04 |  3:14.23 |     48904    |    63476
        5  | 14:06.27 |  3:08.68 |     63477    |    77644
        6  | 17:15.20 |  3:35.65 |     77645    |    93834
        7  | 20:51.10 |  3:57.00 |     93835    |   111609
        8  | 24:48.10 |  3:43.19 |    111610    |   128353
        9  | 28:31.29 |  3:36.39 |    128354    |   144592
       10  | 32:07.68 |  5:00.25 |    144593    |   167117
       11  | 37:08.18 |  4:02.39 |    167118    |   185306
       12  | 41:10.57 |  5:25.01 |    185307    |   209682
       13  | 46:35.58 |  3:22.42 |    209683    |   224874
       14  | 49:58.25 |  2:52.52 |    224875    |   237826
       15  | 52:51.02 |  4:00.52 |    237827    |   255878
       16  | 56:51.54 |  3:03.62 |    255879    |   269665
       17  | 59:55.41 |  3:09.51 |    269666    |   283891
       18  | 63:05.17 |  3:48.33 |    283892    |   301024
       19  | 66:53.50 |  2:50.14 |    301025    |   313788
       20  | 69:43.64 |  2:59.34 |    313789    |   327247
       21  | 72:43.23 |  3:21.74 |    327248    |   342396
Track  1
     Filename J:\RIPs\VA - 2015 Grammy Nominees [FLAC]\01 - Taylor Swift - Shake It Off.wav
     Pre-gap length  0:00:02.00
     Peak level 99.0 %
     Extraction speed 4.7 X
     Track quality 100.0 %
     Test CRC 1E1787AF
     Copy CRC 1E1787AF
     Track not present in AccurateRip database
     Copy OK
Track  2
     Filename J:\RIPs\VA - 2015 Grammy Nominees [FLAC]\02 - Iggy Azalea ft. Charli XCX - Fancy.wav
     Pre-gap length  0:00:00.50
     Peak level 98.8 %
     Extraction speed 5.1 X
     Track quality 100.0 %
     Test CRC E957B6F7
     Copy CRC E957B6F7
     Track not present in AccurateRip database
     Copy OK
Track  3
     Filename J:\RIPs\VA - 2015 Grammy Nominees [FLAC]\03 - Ed Sheeran - Sing.wav
     Peak level 96.7 %
     Extraction speed 5.6 X
     Track quality 100.0 %
     Test CRC 97070E01
     Copy CRC 97070E01
     Track not present in AccurateRip database
     Copy OK
Track  4
     Filename J:\RIPs\VA - 2015 Grammy Nominees [FLAC]\04 - Ariana Grande ft. Iggy Azalea - Problem.wav
     Pre-gap length  0:00:00.49
     Peak level 99.1 %
     Extraction speed 5.7 X
     Track quality 100.0 %
     Test CRC 329569DB
     Copy CRC 329569DB
     Track not present in AccurateRip database
     Copy OK
Track  5
     Filename J:\RIPs\VA - 2015 Grammy Nominees [FLAC]\05 - Meghan Trainor - All About That Bass.wav
     Pre-gap length  0:00:00.49
     Peak level 99.7 %
     Extraction speed 5.1 X
     Track quality 99.9 %
     Test CRC 0CCB4B9E
     Copy CRC 0CCB4B9E
     Track not present in AccurateRip database
     Copy OK
Track  6
     Filename J:\RIPs\VA - 2015 Grammy Nominees [FLAC]\06 - Katy Perry ft. Juicy J - Dark Horse.wav
     Pre-gap length  0:00:00.66
     Peak level 99.2 %
     Extraction speed 6.4 X
     Track quality 100.0 %
     Test CRC D0089639
     Copy CRC D0089639
     Track not present in AccurateRip database
     Copy OK
Track  7
     Filename J:\RIPs\VA - 2015 Grammy Nominees [FLAC]\07 - Coldplay - A Sky Full Of Stars.wav
     Pre-gap length  0:00:00.49
     Peak level 99.0 %
     Extraction speed 6.8 X
     Track quality 100.0 %
     Test CRC F392327F
     Copy CRC F392327F
     Track not present in AccurateRip database
     Copy OK
Track  8
     Filename J:\RIPs\VA - 2015 Grammy Nominees [FLAC]\08 - Miley Cyrus - Wrecking Ball.wav
     Pre-gap length  0:00:00.49
     Peak level 99.3 %
     Extraction speed 7.0 X
     Track quality 100.0 %
     Test CRC 544E906E
     Copy CRC 544E906E
     Track not present in AccurateRip database
     Copy OK
Track  9
     Filename J:\RIPs\VA - 2015 Grammy Nominees [FLAC]\09 - Sia - Chandelier.wav
     Pre-gap length  0:00:00.28
     Peak level 99.7 %
     Extraction speed 7.3 X
     Track quality 100.0 %
     Test CRC 6FB3AF26
     Copy CRC 6FB3AF26
     Track not present in AccurateRip database
     Copy OK
Track 10
     Filename J:\RIPs\VA - 2015 Grammy Nominees [FLAC]\10 - John Legend - All Of Me (Live).wav
     Pre-gap length  0:00:00.49
     Peak level 98.9 %
     Extraction speed 7.9 X
     Track quality 100.0 %
     Test CRC 4E860406
     Copy CRC 4E860406
     Track not present in AccurateRip database
     Copy OK
Track 11
     Filename J:\RIPs\VA - 2015 Grammy Nominees [FLAC]\11 - Hozier - Take Me To Church.wav
     Pre-gap length  0:00:00.49
     Peak level 93.3 %
     Extraction speed 7.9 X
     Track quality 100.0 %
     Test CRC 6E019924
     Copy CRC 6E019924
     Track not present in AccurateRip database
     Copy OK
Track 12
     Filename J:\RIPs\VA - 2015 Grammy Nominees [FLAC]\12 - Beyoncé ft. Jay Z - Drunk In Love.wav
     Pre-gap length  0:00:01.00
     Peak level 99.6 %
     Extraction speed 7.7 X
     Track quality 99.9 %
     Test CRC 0FE6A91C
     Copy CRC 0FE6A91C
     Track not present in AccurateRip database
     Copy OK
Track 13
     Filename J:\RIPs\VA - 2015 Grammy Nominees [FLAC]\13 - Pharrell Williams - Come Get It Bae.wav
     Pre-gap length  0:00:01.68
     Peak level 100.0 %
     Extraction speed 8.4 X
     Track quality 100.0 %
     Test CRC BDCB16E2
     Copy CRC BDCB16E2
     Track not present in AccurateRip database
     Copy OK
Track 14
     Filename J:\RIPs\VA - 2015 Grammy Nominees [FLAC]\14 - Sam Smith - Stay With Me (Darkchild Version).wav
     Pre-gap length  0:00:00.50
     Peak level 94.1 %
     Extraction speed 8.3 X
     Track quality 100.0 %
     Test CRC 75003AC2
     Copy CRC 75003AC2
     Track not present in AccurateRip database
     Copy OK
Track 15
     Filename J:\RIPs\VA - 2015 Grammy Nominees [FLAC]\15 - Beck - Blue Moon.wav
     Pre-gap length  0:00:00.70
     Peak level 99.5 %
     Extraction speed 7.8 X
     Track quality 99.9 %
     Test CRC 1A568FB1
     Copy CRC 1A568FB1
     Track not present in AccurateRip database
     Copy OK
Track 16
     Filename J:\RIPs\VA - 2015 Grammy Nominees [FLAC]\16 - Keith Urban ft. Eric Church - Raise 'Em Up.wav
     Pre-gap length  0:00:00.49
     Peak level 99.6 %
     Extraction speed 8.8 X
     Track quality 100.0 %
     Test CRC AB7DB419
     Copy CRC AB7DB419
     Track not present in AccurateRip database
     Copy OK
Track 17
     Filename J:\RIPs\VA - 2015 Grammy Nominees [FLAC]\17 - The Band Perry - Gentle On My Mind.wav
     Pre-gap length  0:00:00.49
     Peak level 99.7 %
     Extraction speed 8.9 X
     Track quality 100.0 %
     Test CRC ED415D60
     Copy CRC ED415D60
     Track not present in AccurateRip database
     Copy OK
Track 18
     Filename J:\RIPs\VA - 2015 Grammy Nominees [FLAC]\18 - Tim McGraw ft. Faith Hill - Meanwhile Back At Mama's.wav
     Pre-gap length  0:00:00.30
     Peak level 99.0 %
     Extraction speed 9.3 X
     Track quality 100.0 %
     Test CRC 14FEA13F
     Copy CRC 14FEA13F
     Track not present in AccurateRip database
     Copy OK
Track 19
     Filename J:\RIPs\VA - 2015 Grammy Nominees [FLAC]\19 - Miranda Lambert with Carrie Underwood - Somethin' Bad (Duet With Carrie Underwood).wav
     Pre-gap length  0:00:00.49
     Peak level 99.7 %
     Extraction speed 9.1 X
     Track quality 100.0 %
     Test CRC BA0CA8A8
     Copy CRC BA0CA8A8
     Track not present in AccurateRip database
     Copy OK
Track 20
     Filename J:\RIPs\VA - 2015 Grammy Nominees [FLAC]\20 - Little Big Town - Day Drinking.wav
     Pre-gap length  0:00:01.06
     Peak level 96.1 %
     Extraction speed 9.4 X
     Track quality 100.0 %
     Test CRC 58A3234E
     Copy CRC 58A3234E
     Track not present in AccurateRip database
     Copy OK
Track 21
     Filename J:\RIPs\VA - 2015 Grammy Nominees [FLAC]\21 - Pharrell Williams - Happy (Live).wav
     Pre-gap length  0:00:00.49
     Peak level 99.5 %
     Extraction speed 9.6 X
     Track quality 100.0 %
     Test CRC 003165FB
     Copy CRC 003165FB
     Track not present in AccurateRip database
     Copy OK
None of the tracks are present in the AccurateRip database
No errors occurred
End of status report
---- CUETools DB Plugin V2.1.3
[CTDB TOCID: 17qD8ec7CfBirMgm2ufLeCVR7vU-] disk not present in database, Submit result: duplicate submission
==== Log checksum 09736875C5CC3275EA61FE458D8E35DAC0B5B1EB3F14680F952A10A4C22A5429 ====

==========================
关于链接失效的说明(度盘+115好友分享的说明)
http://www.cdbao.net/thread-117499-1-1.html

百度下载:
游客,如果您要查看本帖隐藏内容请回复

115下载:
游客,如果您要查看本帖隐藏内容请回复
来自群组: 欧美流行

点评

最终的金属仓库  发表于 2016-3-11 09:01



上一篇:流行民谣新浪潮《The Nation's Favourite 70s Number Ones》2015/FLAC/BD...
下一篇:香蕉女郎:Bananarama《Megarama》(The Mixes)3CD/2015/FLAC/BD+115
关于链接失效的说明(度盘+115盘+快传 好友分享的说明)
http://www.cdbao.net/thread-117499-1-1.html     
紧急通告:115,快传等网盘取消了分享功能礼包码链接全部失效
http://www.cdbao.net/thread-122759-1-1.html

0

主题

84

帖子

130

积分

新人会员,请认真回复,若恶意回复,直接封号

Rank: 1

积分
130

社区QQ达人

发表于 2015-7-20 10:14:45 | 显示全部楼层
Thanks for sharing it!! Love it! I can't wait for downloading now!!!

2

主题

423

帖子

300

积分

乐坛新星

Rank: 2

积分
300

社区QQ达人

发表于 2015-7-20 14:28:09 | 显示全部楼层
印象很深的那首stay with me。感谢楼主分享

0

主题

85

帖子

84

积分

新人会员,请认真回复,若恶意回复,直接封号

Rank: 1

积分
84

社区QQ达人

发表于 2015-7-20 18:12:29 | 显示全部楼层
感谢分享!!!!!!!!!!!!!!!!!!

0

主题

8

帖子

63

积分

新人会员,请认真回复,若恶意回复,直接封号

Rank: 1

积分
63
发表于 2015-7-21 00:38:31 | 显示全部楼层
good good good
這是我的最愛
謝謝

0

主题

506

帖子

399

积分

乐坛新星

Rank: 2

积分
399
发表于 2015-7-21 13:11:31 | 显示全部楼层
谢谢楼主,非常感谢,辛苦你了。。。。

0

主题

180

帖子

39

积分

新人会员,请认真回复,若恶意回复,直接封号

Rank: 1

积分
39
发表于 2015-7-22 03:43:47 | 显示全部楼层
有喜欢的歌必须听一下谢谢楼主

0

主题

50

帖子

148

积分

新人会员,请认真回复,若恶意回复,直接封号

Rank: 1

积分
148

社区QQ达人

发表于 2015-7-22 17:29:43 | 显示全部楼层
谢谢楼主,非常感谢,辛苦你了。。。。

0

主题

9

帖子

64

积分

新人会员,请认真回复,若恶意回复,直接封号

Rank: 1

积分
64

社区QQ达人

发表于 2015-7-24 18:13:23 | 显示全部楼层
收下了!!!!!!!!!!!!!!!!!!!!!!!!!!

0

主题

125

帖子

263

积分

乐坛新星

Rank: 2

积分
263
发表于 2015-7-24 20:24:36 | 显示全部楼层
都是好听的歌呀 ,尤其是霉霉的歌

1

主题

219

帖子

267

积分

乐坛新星

Rank: 2

积分
267

社区QQ达人

发表于 2015-7-27 18:42:24 | 显示全部楼层
感谢楼主呀 ,,,,,,,,,,,,,,,,,,,,,,,

0

主题

13

帖子

-6

积分

恶意回复被扣没分了,积分增加方法见置顶帖

积分
-6
发表于 2015-7-29 21:04:43 | 显示全部楼层
★★★感谢分享精彩好音乐★★★

0

主题

25

帖子

87

积分

新人会员,请认真回复,若恶意回复,直接封号

Rank: 1

积分
87
发表于 2015-8-2 17:12:26 | 显示全部楼层
谢谢楼主  我一直在寻找哦,从未被超越

0

主题

206

帖子

316

积分

乐坛新星

Rank: 2

积分
316

社区QQ达人

发表于 2015-8-6 21:09:08 | 显示全部楼层
超岩听,酱酱,多谢多谢

0

主题

44

帖子

147

积分

新人会员,请认真回复,若恶意回复,直接封号

Rank: 1

积分
147
发表于 2015-8-17 11:50:38 | 显示全部楼层
听下看看今年有萨像样的歌~~谢谢LZ
您需要登录后才可以回帖 登录 | 注册

本版积分规则

快速回复 返回顶部 返回列表