查看: 4402|回复: 164

原抓:邓紫棋《多远都要在一起HQCD》2CD [WAV+CUE/百度]

  [复制链接]

416

主题

783

帖子

4万

积分

天王巨星

Rank: 7Rank: 7Rank: 7

积分
42134

社区QQ达人灌水勋章分享勋章

发表于 2015-7-9 21:55:10 | 显示全部楼层 |阅读模式

注册会员,获得无损资源下载地址,享受高品质音乐。

您需要 登录 才可以下载或查看,没有帐号?注册

x
本帖最后由 微笑面对 于 2015-7-12 11:54 编辑

cover_副本.jpg
back_副本.jpg
CD_副本.jpg

专辑名称:《多远都要在一起HQCD》2CD
专辑艺人:邓紫棋
出版发行:珠影白天鹅音像出版社
ISRC编码:CN-F23-13-1728-00/A.J6
发行时间:2015

专辑介绍:
邓紫棋G.E.M.1991出生于上海,成长于香港,
在拥有音乐世家背景的母亲和外祖母指导下,
G.E.M.自小便喜爱 唱歌与音乐结下不解之缘。
G.E.M从小就立志从事与音乐有关的工作,
但没想过当歌手,觉得这是个遥不可及的梦想 ,
所以她在5岁的时候,已经开始尝试作曲填词,
10岁便不断参加不同的歌唱比赛,
曾试过一年内赢得5个比赛冠军 ,
令她成为学界中的一颗小明星。
并且13岁已经完成了8级钢琴,自小亦学习体操跳舞,
令她的舞台演出打下良好的 基础。
邓紫棋《多远都要在一起HQCD》2CD,
收录她的36首经典歌曲。

专辑曲目:
DISC:A
01 多远都要在一起
02 后会无期
03 龙卷风
04 如果没有你
05 寂寞星球的玫瑰
06 爱现在的我
07 是否
08 Mascara(烟熏妆)
09 塞纳河
10 奇迹
11 Oh Boy(噢 男孩)
12 等一个他
13 睡公主
14 亚莉亚蒂之歌
15 Fallin'g
16 Lady Marmalade
17 你不是真正的快乐
18 春天里

DISC:B
01 手心里的蔷薇
02 心的节奏
03 喜欢你
04 泡沫
05 存在
06 你把我灌醉
07 If I Were A Boy
08 A.I.N.Y.(爱你)
09 回忆的沙漏
10 写不完的温柔
11 我的秘密
12 我不懂爱
13 偶尔
14 情人
15 末日
16 原谅我不懂爱
17 不存在的存在
18 我要我们在一起


说明:
1、本音乐仅供试听、若喜欢,请购买正版CD。
2、有人抱怨:太贵矣?真的贵乎?又不是真金白银,大家懂的!
望免费提供,我想说的是:NO
3、至于正版、盗版,本人不想说什么,
能真正从音乐中带来快乐,其他不重要!
下载后自行鉴定无损真伪;



整轨无损鉴定截图:
CD1.png
CD2.png


游客,如果您要查看本帖隐藏内容请回复

点评

此链接分享内容可能因为涉及侵权、色情、反动、低俗等信息,无法访问!  发表于 2016-8-15 14:19
三天后就可以降低积分下载了,至于为什么?你懂的,呵呵!!  发表于 2015-7-10 10:39

评分

参与人数 1CD +160 包子 +2 收起 理由
醉耳 + 160 + 2 很棒的帖子,支持 发帖辛苦

查看全部评分




上一篇:周笔畅《翻白眼Ⅱ》FLAC分轨/百度盘/2015年迷你数字专辑Ⅱ
下一篇:群星《旋风少女 电视原声带》FLAC/百度

416

主题

783

帖子

4万

积分

天王巨星

Rank: 7Rank: 7Rank: 7

积分
42134

社区QQ达人灌水勋章分享勋章

 楼主| 发表于 2015-7-9 21:56:54 | 显示全部楼层


416

主题

783

帖子

4万

积分

天王巨星

Rank: 7Rank: 7Rank: 7

积分
42134

社区QQ达人灌水勋章分享勋章

 楼主| 发表于 2015-7-9 21:57:56 | 显示全部楼层
Exact Audio Copy V1.0 beta 3 from 29. August 2011

EAC 抓取日志文件从9. 七月 2015, 18:16

邓紫棋 / CDImage

使用驱动器  :HL-DT-STDVDROM DH18NS40   Adapter: 2  ID: 0

读取模式 : 快速

读取偏移校正:               : 0
读取 Lead-In 和 Lead-Out : 否
用静音填充抓取中丢失偏移的采样       : 是
去除首尾静音块               : 否
在CRC 计算中使用了空样本       : 是
已用接口                  : Win NT 及 2000 本地 Win32 接口

所用输出模式: : 内部 WAV 函数
样本格式    : 44.100 Hz; 16 Bit; 立体声


已抓取 CD 的 TOC

     音轨 |    起始    |    长度    |  起始扇区  |  结束扇区  
    --------------------------------------------
      1 |  0:02.00 |  3:37.45 |    150 |  16469
      2 |  3:39.45 |  3:45.02 |  16470 |  33346
      3 |  7:24.47 |  4:09.39 |  33347 |  52060
      4 | 11:34.11 |  3:52.04 |  52061 |  69464
      5 | 15:26.15 |  4:44.15 |  69465 |  90779
      6 | 20:10.30 |  3:23.35 |  90780 | 106039
      7 | 23:33.65 |  3:37.44 | 106040 | 122358
      8 | 27:11.34 |  4:01.07 | 122359 | 140440
      9 | 31:12.41 |  3:31.19 | 140441 | 156284
     10 | 34:43.60 |  3:49.15 | 156285 | 173474
     11 | 38:33.00 |  3:10.05 | 173475 | 187729
     12 | 41:43.05 |  3:03.19 | 187730 | 201473
     13 | 44:46.24 |  4:43.70 | 201474 | 222768
     14 | 49:30.19 |  3:34.59 | 222769 | 238877
     15 | 53:05.03 |  4:14.71 | 238878 | 257998
     16 | 57:19.74 |  3:42.11 | 257999 | 274659
     17 | 61:02.10 |  5:13.40 | 274660 | 298174
     18 | 66:15.50 |  4:32.68 | 298175 | 318642


范围状态及错误

已选择范围

     文件名 F:\邓紫棋《多远都要在一起HQCD》2CD\CD1\CDImage.wav

     峰值电平 100.0 %
     抓取速度 5.4 X
     复制 CRC C472BC89
     复制成功

没有错误发生

状态报告结尾


416

主题

783

帖子

4万

积分

天王巨星

Rank: 7Rank: 7Rank: 7

积分
42134

社区QQ达人灌水勋章分享勋章

 楼主| 发表于 2015-7-9 21:58:46 | 显示全部楼层
Exact Audio Copy V1.0 beta 3 from 29. August 2011

EAC 抓取日志文件从9. 七月 2015, 18:44

未知艺术家 / 未知标题

使用驱动器  :HL-DT-STDVDROM DH18NS40   Adapter: 2  ID: 0

读取模式 : 快速

读取偏移校正:               : 0
读取 Lead-In 和 Lead-Out : 否
用静音填充抓取中丢失偏移的采样       : 是
去除首尾静音块               : 否
在CRC 计算中使用了空样本       : 是
已用接口                  : Win NT 及 2000 本地 Win32 接口

所用输出模式: : 内部 WAV 函数
样本格式    : 44.100 Hz; 16 Bit; 立体声


已抓取 CD 的 TOC

     音轨 |    起始    |    长度    |  起始扇区  |  结束扇区  
    --------------------------------------------
      1 |  0:00.00 |  4:42.02 |      0 |  21151
      2 |  4:42.02 |  3:21.09 |  21152 |  36235
      3 |  8:03.11 |  4:13.00 |  36236 |  55210
      4 | 12:16.11 |  4:35.28 |  55211 |  75863
      5 | 16:51.39 |  4:07.35 |  75864 |  94423
      6 | 20:58.74 |  5:00.25 |  94424 | 116948
      7 | 25:59.24 |  4:49.00 | 116949 | 138623
      8 | 30:48.24 |  3:47.00 | 138624 | 155648
      9 | 34:35.24 |  3:53.00 | 155649 | 173123
     10 | 38:28.24 |  3:55.00 | 173124 | 190748
     11 | 42:23.24 |  4:10.00 | 190749 | 209498
     12 | 46:33.24 |  3:34.09 | 209499 | 225557
     13 | 50:07.33 |  3:24.00 | 225558 | 240857
     14 | 53:31.33 |  5:15.13 | 240858 | 264495
     15 | 58:46.46 |  4:42.39 | 264496 | 285684
     16 | 63:29.10 |  3:54.00 | 285685 | 303234
     17 | 67:23.10 |  5:04.00 | 303235 | 326034
     18 | 72:27.10 |  5:21.50 | 326035 | 350159


范围状态及错误

已选择范围

     文件名 F:\邓紫棋《多远都要在一起HQCD》2CD\CD2\CDImage.wav

     峰值电平 100.0 %
     抓取速度 5.8 X
     复制 CRC 517AE0E3
     复制成功

没有错误发生

状态报告结尾

==== 记录校验日志 FFACD49C74C5641D02166D2AE512EC1DB59C09B29AA3C566F3463C644BB445B5 ====


1

主题

131

帖子

215

积分

乐坛新星

Rank: 2

积分
215
发表于 2015-7-9 23:29:24 | 显示全部楼层
沙发啊,这么好的资源,支持楼主

0

主题

110

帖子

230

积分

乐坛新星

Rank: 2

积分
230
发表于 2015-7-9 23:37:48 | 显示全部楼层
500碟cd是什么意思?

0

主题

399

帖子

570

积分

职业歌手

Rank: 3Rank: 3

积分
570

社区QQ达人

发表于 2015-7-10 00:14:04 | 显示全部楼层
怎么挣CD啊?楼主要太多了,打个折吧?好人。

1

主题

223

帖子

626

积分

职业歌手

Rank: 3Rank: 3

积分
626
发表于 2015-7-10 02:24:27 | 显示全部楼层
看看我的够不够我再攒几天应该差不多了

0

主题

94

帖子

142

积分

新人会员,请认真回复,若恶意回复,直接封号

Rank: 1

积分
142

社区QQ达人

发表于 2015-7-10 10:11:45 | 显示全部楼层
楼主太不厚道了,那么贵!!!!!!!!

1

主题

29

帖子

995

积分

职业歌手

Rank: 3Rank: 3

积分
995
发表于 2015-7-10 11:23:24 | 显示全部楼层
并没有那么多CD碟肿么办???

2

主题

423

帖子

300

积分

乐坛新星

Rank: 2

积分
300

社区QQ达人

发表于 2015-7-10 14:40:17 | 显示全部楼层
降积分是怎么回事,感谢楼主分享。。。

17

主题

344

帖子

578

积分

职业歌手

Rank: 3Rank: 3

积分
578
发表于 2015-7-10 16:43:57 | 显示全部楼层
好啦貴的cd , 樓主下次可否不那麼貴, 輕抬貴手, 謝謝分享

1

主题

284

帖子

389

积分

乐坛新星

Rank: 2

积分
389

社区QQ达人

发表于 2015-7-10 18:32:37 | 显示全部楼层
这么好的资源,支持楼主

0

主题

56

帖子

152

积分

乐坛新星

Rank: 2

积分
152

社区QQ达人

发表于 2015-7-10 22:58:24 | 显示全部楼层
收下了,好听!!!谢谢!!

1

主题

49

帖子

122

积分

新人会员,请认真回复,若恶意回复,直接封号

Rank: 1

积分
122

社区QQ达人

发表于 2015-7-11 14:17:05 | 显示全部楼层
谢谢分享                                                                              
您需要登录后才可以回帖 登录 | 注册

本版积分规则

快速回复 返回顶部 返回列表