查看: 644|回复: 14

俄流行:VA《Хит-топ 2015》FLAC/BD+115

[复制链接]
 成长值: 19575

6464

主题

1万

帖子

8万

积分

音乐掌门人

Rank: 20Rank: 20Rank: 20Rank: 20Rank: 20

积分
83751

名人勋章社区QQ达人分享勋章精华帖达人灌水勋章

发表于 2015-7-9 16:37:23 | 显示全部楼层 |阅读模式

注册会员,获得无损资源下载地址,享受高品质音乐。

您需要 登录 才可以下载或查看,没有帐号?注册

x
67249225bae2629923b33e3c1355f76d.jpg

Хит-топ 2015. Лирические баллады


Жанр: Pop
Носитель: CD
Страна-производитель диска (релиза): Россия
Год издания: 2014
Издатель (лейбл): Юнайтед Мьюзик Групп
Номер по каталогу: UMGCD14-510
Страна исполнителя (группы): Россия
Аудиокодек: FLAC (*.flac)
Тип рипа: image+.cue
Битрейт аудио: lossless
Продолжительность: 1:17:18



1. Филипп Киркоров - Иллюзия
2. Emin - Начистоту
3. Анжелика Варум - Я всегда с тобой
4. Стас Михайлов - Семь дорог
5. Слава - Спелый мой
6. Dan Balan - Домой
7. Loboda - Не нужна
8. Дима Билан - Болен тобой
9. Владимир Кузьмин - Чужая даль
10. Григорий Лепс - Выбрось из головы
11. Кристина Орбакайте - Московская осень
12. Любовь Успенская - Горький вкус бузины - MPEG
13. Александр Коган - Я жду звонка
14. Emin Feat. Loboda - Смотришь в небо - MPEG
15. Артур Бэст - Ты как сон наяву
16. Ева Польна - Не расставаясь - MPEG
17. Влад Соколовский - Все возможно
18. Доминик Джокер - Дышу тобой
19. Алсу - Нет тебя дороже
20. Батыр Шукенов - Письмо души


Exact Audio Copy V1.0 beta 4 from 7. December 2014
Отчёт EAC об извлечении, выполненном 19. февраля 2015, 11:54
Various Artists / Хит топ 2015: Лирические баллады
Дисковод: TSSTcorpCDDVDW SN-208DB   Adapter: 1  ID: 0
Режим чтения                 : Достоверность
Использование точного потока : Да
Отключение кэша аудио        : Да
Использование указателей C2  : Нет
Коррекция смещения при чтении                     : 6
Способность читать области Lead-in и Lead-out     : Нет
Заполнение пропущенных сэмплов тишиной            : Да
Удаление блоков с тишиной в начале и конце        : Нет
При вычислениях CRC использовались нулевые сэмплы : Да
Интерфейс                                         : Встроенный Win32-интерфейс для Win NT/2000
Выходной формат          : Пользовательский кодировщик
Выбранный битрейт        : 128 kBit/s
Качество                 : Высокий
Добавление ID3-тега      : Нет
Утилита сжатия           : D:\Program Files\Exact Audio Copy\Flac\flac.exe
Дополнительные параметры : -V -8 -T "Date=%year%" -T "Genre=%genre%" %source%
TOC извлечённого CD
     Трек |   Старт  | Длительность | Начальный сектор | Конечный сектор
    ---------------------------------------------------------------------
       1  |  0:00.00 |    3:54.10   |           0      |      17559
       2  |  3:54.10 |    3:37.73   |       17560      |      33907
       3  |  7:32.08 |    4:42.23   |       33908      |      55080
       4  | 12:14.31 |    4:30.38   |       55081      |      75368
       5  | 16:44.69 |    4:04.33   |       75369      |      93701
       6  | 20:49.27 |    4:21.67   |       93702      |     113343
       7  | 25:11.19 |    3:31.06   |      113344      |     129174
       8  | 28:42.25 |    3:43.32   |      129175      |     145931
       9  | 32:25.57 |    3:59.62   |      145932      |     163918
      10  | 36:25.44 |    3:31.52   |      163919      |     179795
      11  | 39:57.21 |    4:10.73   |      179796      |     198618
      12  | 44:08.19 |    3:49.15   |      198619      |     215808
      13  | 47:57.34 |    4:07.62   |      215809      |     234395
      14  | 52:05.21 |    3:46.36   |      234396      |     251381
      15  | 55:51.57 |    4:21.72   |      251382      |     271028
      16  | 60:13.54 |    3:10.69   |      271029      |     285347
      17  | 63:24.48 |    3:26.12   |      285348      |     300809
      18  | 66:50.60 |    3:28.67   |      300810      |     316476
      19  | 70:19.52 |    3:28.13   |      316477      |     332089
      20  | 73:47.65 |    3:30.33   |      332090      |     347872
Характеристики диапазона извлечения и сообщения об ошибках
Выбранный диапазон
     Имя файла D:\Users\извлеч\Various Artists - Хит топ 2015- Лирические баллады.wav
     Пиковый уровень 98.9 %
     Скорость извлечения 4.6 X
     Качество диапазона 99.9 %
     CRC теста E072DB24
     CRC копии E072DB24
     Копирование... OK
Ошибок не произошло
Конец отчёта
==== Контрольная сумма отчёта BD720151CD1FBB1E9A096735CF821C50543E7C72083B9FCD8F39BFEA7B85D626 ====

==============================
百度下载:
游客,如果您要查看本帖隐藏内容请回复


115下载:
游客,如果您要查看本帖隐藏内容请回复

来自群组: 欧美流行



上一篇:德流行:VA《Eurovision Song Contest Vienna》2CD/2015/FLAC/BD+115
下一篇:俄流行:Ольга Никитина《6CD》2013-2015/FLAC/BD+115
关于链接失效的说明(度盘+115盘+快传 好友分享的说明)
http://www.cdbao.net/thread-117499-1-1.html     
紧急通告:115,快传等网盘取消了分享功能礼包码链接全部失效
http://www.cdbao.net/thread-122759-1-1.html

0

主题

506

帖子

399

积分

乐坛新星

Rank: 2

积分
399
发表于 2015-7-9 18:32:16 | 显示全部楼层
谢谢楼主,楼主好人。。。。。。辛苦了!

0

主题

868

帖子

1525

积分

当红偶像

Rank: 4

积分
1525
发表于 2015-7-9 18:48:47 | 显示全部楼层
相当给力!多谢分享精彩音乐!

0

主题

593

帖子

781

积分

职业歌手

Rank: 3Rank: 3

积分
781
发表于 2015-7-10 13:17:46 | 显示全部楼层
试听的那首很好听,别的也不会差了,感谢分享。

0

主题

191

帖子

175

积分

乐坛新星

Rank: 2

积分
175

社区QQ达人

发表于 2015-7-11 18:32:24 | 显示全部楼层

Хит-топ 2015. Лирические баллады
integral

0

主题

551

帖子

2091

积分

当红偶像

Rank: 4

积分
2091

社区QQ达人

发表于 2015-7-11 23:04:58 | 显示全部楼层
继续下载,感谢楼主分享这么好的资源!!!

0

主题

451

帖子

864

积分

职业歌手

Rank: 3Rank: 3

积分
864
发表于 2015-7-13 16:58:27 | 显示全部楼层
这个看着是最新精选了,赶紧收藏一个

1

主题

908

帖子

1261

积分

职业歌手

Rank: 3Rank: 3

积分
1261

社区QQ达人

发表于 2015-7-16 10:05:19 | 显示全部楼层
听得少的地方,听选集是最不错的选择了!

0

主题

9

帖子

305

积分

乐坛新星

Rank: 2

积分
305

社区QQ达人

发表于 2015-9-3 23:31:24 | 显示全部楼层
蛮好嘛,谢谢分享。。。。。。。

0

主题

76

帖子

166

积分

乐坛新星

Rank: 2

积分
166
发表于 2015-9-15 14:56:43 | 显示全部楼层
听这个让我想起了维塔斯,谢谢楼主分享
integral

0

主题

1491

帖子

265

积分

乐坛新星

Rank: 2

积分
265

社区QQ达人

发表于 2015-9-18 22:01:30 | 显示全部楼层
谢谢分享。。。。哇115。???啊啊

0

主题

28

帖子

84

积分

新人会员,请认真回复,若恶意回复,直接封号

Rank: 1

积分
84
发表于 2015-11-6 16:16:55 | 显示全部楼层
相当给力!多谢分享精彩音乐!

0

主题

634

帖子

101

积分

禁止访问

积分
101
发表于 2016-1-23 18:24:20 | 显示全部楼层
俄罗斯歌曲的精选集,还是第一次,哈哈哈,支持了

0

主题

11

帖子

63

积分

新人会员,请认真回复,若恶意回复,直接封号

Rank: 1

积分
63
发表于 2016-7-10 15:37:13 | 显示全部楼层
刚接触俄语,好像还不错,谢谢分享。

0

主题

2

帖子

55

积分

新人会员,请认真回复,若恶意回复,直接封号

Rank: 1

积分
55
发表于 2016-11-15 15:23:14 | 显示全部楼层
下载下来看看怎么样,应该不会失望
您需要登录后才可以回帖 登录 | 注册

本版积分规则

快速回复 返回顶部 返回列表