查看: 3647|回复: 109

原抓:韩宝仪《抒情甜歌[经典精选]2CD》2015【WAV+CUE/百度】

  [复制链接]

416

主题

783

帖子

4万

积分

天王巨星

Rank: 7Rank: 7Rank: 7

积分
42134

社区QQ达人灌水勋章分享勋章

发表于 2015-7-5 21:29:06 | 显示全部楼层 |阅读模式

注册会员,获得无损资源下载地址,享受高品质音乐。

您需要 登录 才可以下载或查看,没有帐号?注册

x
本帖最后由 微笑面对 于 2015-7-12 18:18 编辑

cover_副本.jpg
back_副本.jpg

专辑名称:韩宝仪抒情甜歌 经典精选2CD
专辑艺人:韩宝仪
出版发行:珠影白天鹅音像出版社
ISRC:CN-F23-10-553-00/A.J6
发行时间:2015

专辑介绍:
醉人情歌,如醉如痴,倾情演绎,无限风采;

专辑曲目:
CD1
01 粉红色的回忆
02 抹去泪水
03 错误的爱
04 爱你一万年
05 你怎么说
06 午夜香吻
07 泪的小雨
08 又见炊烟
09 美酒加咖啡
10 多少柔情多少泪
11 明月千里寄相思
12 往事只能回味
13 我有一段情
14 无奈的思绪
15 错误的恋曲
16 丁香花
17 天涯歌女
18 知道不知道
19 叹十声
20 爱的苦酒

CD2
01 情人桥
02 何必来为我怄气
03 露珠儿
04 背新娘
05 高山青
06 含泪的离别
07 用爱将心偷
08 姑娘羞答答
09 一去不回头
10 相思的滋味
11 凤凰于飞
12 一夜孤独
13 想要潇洒离去
14 我告诉自己
15 没有归宿的落花
16 舞女
17 舞女泪
18 你潇洒我漂亮
19 抹去泪水
20 无聊的游戏



压缩包内附封面



资源下载:
游客,如果您要查看本帖隐藏内容请回复


评分

参与人数 1CD +135 包子 +2 收起 理由
醉耳 + 135 + 2 感谢分享资源,CD包因你而精彩.

查看全部评分




上一篇:DTS-群星《坐着奔驰逛草原》2CD[WAV/百度分轨]
下一篇:原抓:江智民《爱在秋天的童话3CD 》2015德国版HD [WAV+CUE/百...

416

主题

783

帖子

4万

积分

天王巨星

Rank: 7Rank: 7Rank: 7

积分
42134

社区QQ达人灌水勋章分享勋章

 楼主| 发表于 2015-7-5 21:31:05 | 显示全部楼层
Exact Audio Copy V1.0 beta 3 from 29. August 2011

EAC 抓取日志文件从4. 七月 2015, 22:20

韩宝仪 / 《抒情甜歌[经典精选]2CD》

使用驱动器  :HL-DT-STDVDROM DH18NS40   Adapter: 2  ID: 0

读取模式 : 快速

读取偏移校正:               : 0
读取 Lead-In 和 Lead-Out : 否
用静音填充抓取中丢失偏移的采样       : 是
去除首尾静音块               : 否
在CRC 计算中使用了空样本       : 是
已用接口                  : Win NT 及 2000 本地 Win32 接口

所用输出模式: : 内部 WAV 函数
样本格式    : 44.100 Hz; 16 Bit; 立体声


已抓取 CD 的 TOC

     音轨 |    起始    |    长度    |  起始扇区  |  结束扇区  
    --------------------------------------------
      1 |  0:00.00 |  3:43.35 |      0 |  16759
      2 |  3:43.35 |  3:40.58 |  16760 |  33317
      3 |  7:24.18 |  3:26.34 |  33318 |  48801
      4 | 10:50.52 |  3:06.10 |  48802 |  62761
      5 | 13:56.62 |  3:14.14 |  62762 |  77325
      6 | 17:11.01 |  3:34.62 |  77326 |  93437
      7 | 20:45.63 |  3:34.46 |  93438 | 109533
      8 | 24:20.34 |  2:54.15 | 109534 | 122598
      9 | 27:14.49 |  2:53.28 | 122599 | 135601
     10 | 30:08.02 |  2:47.02 | 135602 | 148128
     11 | 32:55.04 |  3:09.31 | 148129 | 162334
     12 | 36:04.35 |  3:33.17 | 162335 | 178326
     13 | 39:37.52 |  3:11.13 | 178327 | 192664
     14 | 42:48.65 |  3:42.58 | 192665 | 209372
     15 | 46:31.48 |  3:49.44 | 209373 | 226591
     16 | 50:21.17 |  5:21.63 | 226592 | 250729
     17 | 55:43.05 |  3:41.31 | 250730 | 267335
     18 | 59:24.36 |  2:38.28 | 267336 | 279213
     19 | 62:02.64 |  4:32.29 | 279214 | 299642
     20 | 66:35.18 |  4:12.26 | 299643 | 318568


范围状态及错误

已选择范围

     文件名 F:\韩宝仪《抒情甜歌[经典精选]2CD》\韩宝仪《抒情甜歌[经典精选]2CD》CD1.wav

     峰值电平 100.0 %
     抓取速度 2.7 X
     复制 CRC F6131D75
     复制成功

没有错误发生

状态报告结尾


416

主题

783

帖子

4万

积分

天王巨星

Rank: 7Rank: 7Rank: 7

积分
42134

社区QQ达人灌水勋章分享勋章

 楼主| 发表于 2015-7-5 21:31:43 | 显示全部楼层
Exact Audio Copy V1.0 beta 3 from 29. August 2011

EAC 抓取日志文件从4. 七月 2015, 23:01

韩宝仪 / 抒情甜歌[经典精选]

使用驱动器  :HL-DT-STDVDROM DH18NS40   Adapter: 2  ID: 0

读取模式 : 快速

读取偏移校正:               : 0
读取 Lead-In 和 Lead-Out : 否
用静音填充抓取中丢失偏移的采样       : 是
去除首尾静音块               : 否
在CRC 计算中使用了空样本       : 是
已用接口                  : Win NT 及 2000 本地 Win32 接口

所用输出模式: : 内部 WAV 函数
样本格式    : 44.100 Hz; 16 Bit; 立体声


已抓取 CD 的 TOC

     音轨 |    起始    |    长度    |  起始扇区  |  结束扇区  
    --------------------------------------------
      1 |  0:00.00 |  2:42.30 |      0 |  12179
      2 |  2:42.30 |  4:42.60 |  12180 |  33389
      3 |  7:25.15 |  4:19.72 |  33390 |  52886
      4 | 11:45.12 |  3:18.34 |  52887 |  67770
      5 | 15:03.46 |  3:06.56 |  67771 |  81776
      6 | 18:10.27 |  3:42.12 |  81777 |  98438
      7 | 21:52.39 |  3:22.27 |  98439 | 113615
      8 | 25:14.66 |  2:26.03 | 113616 | 124568
      9 | 27:40.69 |  2:31.19 | 124569 | 135912
     10 | 30:12.13 |  4:17.39 | 135913 | 155226
     11 | 34:29.52 |  2:46.46 | 155227 | 167722
     12 | 37:16.23 |  3:18.15 | 167723 | 182587
     13 | 40:34.38 |  3:25.12 | 182588 | 197974
     14 | 43:59.50 |  3:34.31 | 197975 | 214055
     15 | 47:34.06 |  4:16.27 | 214056 | 233282
     16 | 51:50.33 |  3:40.29 | 233283 | 249811
     17 | 55:30.62 |  3:12.06 | 249812 | 264217
     18 | 58:42.68 |  3:41.56 | 264218 | 280848
     19 | 62:24.49 |  3:39.48 | 280849 | 297321
     20 | 66:04.22 |  2:55.51 | 297322 | 310497


范围状态及错误

已选择范围

     文件名 F:\韩宝仪《抒情甜歌[经典精选]2CD》\韩宝仪-抒情甜歌[经典精选].wav

     峰值电平 100.0 %
     抓取速度 2.7 X
     复制 CRC A660CFDE
     复制成功

没有错误发生

状态报告结尾


416

主题

783

帖子

4万

积分

天王巨星

Rank: 7Rank: 7Rank: 7

积分
42134

社区QQ达人灌水勋章分享勋章

 楼主| 发表于 2015-7-5 21:33:15 | 显示全部楼层



0

主题

210

帖子

155

积分

乐坛新星

Rank: 2

积分
155

社区QQ达人

发表于 2015-7-6 06:36:05 | 显示全部楼层
韩宝仪经典精选重新出版就是发烧友的最爱

0

主题

334

帖子

556

积分

职业歌手

Rank: 3Rank: 3

积分
556

社区QQ达人

发表于 2015-7-6 12:08:20 | 显示全部楼层
收下好经典重制作听好多谢!

0

主题

6

帖子

65

积分

新人会员,请认真回复,若恶意回复,直接封号

Rank: 1

积分
65
发表于 2015-7-6 23:00:57 | 显示全部楼层
非常经典,非常好听,谢谢分享!
 成长值: 16125

11

主题

795

帖子

1936

积分

VIP6

Rank: 9Rank: 9Rank: 9

积分
1936

社区QQ达人

QQ
发表于 2015-7-7 10:19:31 | 显示全部楼层
偶像经典,岂吝500碟乎!

0

主题

57

帖子

169

积分

乐坛新星

Rank: 2

积分
169
发表于 2015-7-8 10:44:41 | 显示全部楼层
非一般的动听啊谢谢

0

主题

399

帖子

570

积分

职业歌手

Rank: 3Rank: 3

积分
570

社区QQ达人

发表于 2015-7-10 15:31:43 | 显示全部楼层
下载听听,谢谢楼主分享。祝论坛红火!

0

主题

399

帖子

570

积分

职业歌手

Rank: 3Rank: 3

积分
570

社区QQ达人

发表于 2015-7-10 15:33:53 | 显示全部楼层
怎么才能赚CD数啊,十分期待下载啊?

0

主题

50

帖子

324

积分

乐坛新星

Rank: 2

积分
324
发表于 2015-7-12 06:58:43 | 显示全部楼层
BB啊BB,没有BB不能下载啊。谢谢发布共享!

0

主题

159

帖子

279

积分

乐坛新星

Rank: 2

积分
279
发表于 2015-7-13 05:52:09 | 显示全部楼层
好人好歌!~~~~~~~~~~~~~~~~~~~~~~~~~~~~~~~~~~~~~~~~~~~

0

主题

339

帖子

455

积分

职业歌手

Rank: 3Rank: 3

积分
455
发表于 2015-7-13 19:17:33 | 显示全部楼层
够经典,下载收蒇,多谢分享!

0

主题

81

帖子

124

积分

新人会员,请认真回复,若恶意回复,直接封号

Rank: 1

积分
124

社区QQ达人

发表于 2015-7-13 19:43:21 | 显示全部楼层
好听,下下来收了.......................................................
您需要登录后才可以回帖 登录 | 注册

本版积分规则

快速回复 返回顶部 返回列表