查看: 1300|回复: 35

独立民谣根源唱作:Sufjan Stevens《Carrie & Lowell》2015/FLAC/BD+115

[复制链接] [已阅至26楼]
 成长值: 19620

6514

主题

1万

帖子

8万

积分

音乐掌门人

Rank: 20Rank: 20Rank: 20Rank: 20Rank: 20

积分
84207

名人勋章社区QQ达人分享勋章精华帖达人灌水勋章

发表于 2015-6-19 16:40:08 | 显示全部楼层 |阅读模式

注册会员,获得无损资源下载地址,享受高品质音乐。

您需要 登录 才可以下载或查看,没有帐号?注册

x
14189800041802.jpg

小简介

1975年的7月1日,密歇根州底特律城,Stevens夫妇在家门口发现了一个牛奶箱,里面装着一个用塑料纸包裹的婴儿,它的手腕上系着一张神秘的字条:‘I love you’,这个婴儿就是后来的Sufjan Stevens。虽然当时Stevens夫妇已经有了三个孩子:Jo-Jo、Zukey-Dukey和Jam-Jam,并且生活过得很清贫:Stevens太太靠编制毛毯在跳蚤市场贩卖贴补家用,而Stevens先生是一间医院的看守人,但夫妇俩心地却非常善良,他们决定把这个孩子留下来抚养,并给他起了个名字‘Sufjan Stevens’——来源于一个伟大的亚美尼亚苏非派武士‘Abu Sufjan Muhammad’,他曾为了解救‘仙女公主’英勇地杀死了万条火龙。虽然小Sufjan看起来一幅没精打采的模样,但却是一个乖孩子。夫妇俩尽了最大的能力来照顾他:喂胡萝卜给他吃,给他读《Bhagavad Gita》中的段落,(‘Bhagavad Gita’意为‘The Song of the Lord’,是印度教经典《摩阿婆罗多》(Mahabharata)里的一首长篇颂歌,它并不是一个空洞的哲学体系,而是通过描述一个人在矛盾选择面前的行为来反映印度教的种种世界观),给他梳理头发,他们还在房间里边唱边跳起踢踏舞来,一切都是那么美好。。
1288218489_2qJ8_4.jpg
Sufjan Stevens,1975年出生,可能成为我们这个世代最重要的Singer/Songwriter。
高中时学习双簧管,大学时专研斑鸠琴,随后不论是吉他、钢琴、手风琴、曼陀林、敲击乐器等,都成了Sufjan的精通范围。成为专职音乐家前,这名全才的乐器演奏能手也曾是科幻小说的作家与时代杂志的内页设计师。出道以来音乐风格之变化多端,与他精彩的职场履历恰可比拟。
第二张专辑Enjoy Your Rabbit以中国的十二生肖为题,玩的却是光怪陆离的电子即兴曲风;第四张专辑Seven Swans(音速青春2004十大专辑)以斑鸠琴为主导,笃信基督教的Sufjan透过缓慢的民谣曲势,探讨着宗教信仰、家庭价值与个人情感三者间的纠葛,词与曲皆充满着深度与力量。而第三张专辑Michigan与最新专辑Illinois,则是Sufjan Stevens另一个异想天开却又让人拍案叫绝的音乐狂想。
对Sufjan来说,所谓的50 States Project一开始只是广告文案式的幽默宣传手法,目的是推销Michigan – 一张以自己成长家乡为主题的概念专辑。然而音乐质地细致多元的Michigan不但一举打响了Sufjan Stevens的名号,蜂拥而至的好评也迫使Sufjan重新审视这个计划的可能性 – 以美国的五十州为命题蓝本,替他们各自创作一张唱片。
Sufjan开始思考着美国认同与美国历史。从他的角度出发,美国毫无疑问是座混杂着各色人种与各式宗教的熔炉;然而混乱的政治局面却使这个曾经强盛的移民国家面临着信心崩解的危机。如何将大家团结起来,找寻一致的出口,似乎是每名公民都应努力的课题。Sufjan尽了自己的本分,音乐人的本分;2004年尾端,他将自己关进录音室,录制了50 States Project的第二号作品,Illinois。

=========================
9a57abd1b52b5cdaa6fb6f25.jpg

艺人:         Sufjan Stevens
语种:         英语
唱片公司:         Asthmatic Kitty
发行时间:         2015年03月31日
专辑类别:         录音室专辑
专辑风格:         根源唱作人 Singer/Songwriter, 独立民谣 Indie Folk

Sufjan Stevens - Carrie & Lowell
pic
Жанр: Indie Folk, Baroque Pop
Год издания: 2015
Издатель (лейбл): Asthmatic Kitty
Страна исполнителя (группы): Usa
Аудиокодек: FLAC (*.flac)
Тип рипа: tracks+.cue
Битрейт аудио: lossless
Продолжительность: 00:43:35
Источник (релизер): CD
Наличие сканов в содержимом раздачи: нет
Треклист:
01. Death With Dignity
02. Should Have Known Better
03. All of Me Wants All of You
04. Drawn to the Blood
05. Fourth of July
06. The Only Thing
07. Carrie & Lowell
08. Eugene
09. John My Beloved
10. No Shade in the Shadow of the Cross
11. Blue Bucket of Gold
X Lossless Decoder version 20141129 (148.1)
XLD extraction logfile from 2015-03-20 17:41:10 -0400
Sufjan Stevens / Carrie & Lowell
Used drive : HL-DT-ST DVDRW  GX40N (revision RQ00)
Media type : Pressed CD
Ripper mode             : XLD Secure Ripper
Disable audio cache     : OK for the drive with a cache less than 1375KiB
Make use of C2 pointers : NO
Read offset correction  : 6
Max retry count         : 20
Gap status              : Analyzed, Appended (except HTOA)
TOC of the extracted CD
     Track |   Start  |  Length  | Start sector | End sector
    ---------------------------------------------------------
        1  | 00:00:00 | 03:59:39 |         0    |    17963
        2  | 03:59:39 | 05:07:52 |     17964    |    41040
        3  | 09:07:16 | 03:41:53 |     41041    |    57668
        4  | 12:48:69 | 03:18:36 |     57669    |    72554
        5  | 16:07:30 | 02:26:67 |     72555    |    83571
        6  | 18:34:22 | 04:39:24 |     83572    |   104520
        7  | 23:13:46 | 04:44:10 |    104521    |   125830
        8  | 27:57:56 | 03:14:48 |    125831    |   140428
        9  | 31:12:29 | 05:04:65 |    140429    |   163293
       10  | 36:17:19 | 02:40:66 |    163294    |   175359
       11  | 38:58:10 | 04:43:71 |    175360    |   196655
AccurateRip Summary
    Disc not found in AccurateRip DB.
All Tracks
    Album gain               : -6.51 dB
    Peak                     : 0.966461
    Statistics
        Read error                           : 0
        Jitter error (maybe fixed)           : 0
        Retry sector count                   : 0
        Damaged sector count                 : 0
Track 01
    Filename : /Volumes/MY WHOLE LIFE IS HERE/MORE Downloads/Sufjan Stevens - Carrie & Lowell (2015) [FLAC]/01 Death With Dignity.flac
    Pre-gap length : 00:02:00
    Track gain               : -5.92 dB
    Peak                     : 0.966400
    CRC32 hash (test run)    : 4B9BF805
    CRC32 hash               : 4B9BF805
    CRC32 hash (skip zero)   : 3C8B683A
    AccurateRip v1 signature : 6EC5C6C1
    AccurateRip v2 signature : 49F1C525
        ->Track not present in AccurateRip database.
    Statistics
        Read error                           : 0
        Jitter error (maybe fixed)           : 0
        Retry sector count                   : 0
        Damaged sector count                 : 0
Track 02
    Filename : /Volumes/MY WHOLE LIFE IS HERE/MORE Downloads/Sufjan Stevens - Carrie & Lowell (2015) [FLAC]/02 Should Have Known Better.flac
    Track gain               : -7.93 dB
    Peak                     : 0.966431
    CRC32 hash (test run)    : E7ACC486
    CRC32 hash               : E7ACC486
    CRC32 hash (skip zero)   : 1182896D
    AccurateRip v1 signature : CEFA1BBA
    AccurateRip v2 signature : 5C19AFE4
        ->Track not present in AccurateRip database.
    Statistics
        Read error                           : 0
        Jitter error (maybe fixed)           : 0
        Retry sector count                   : 0
        Damaged sector count                 : 0
Track 03
    Filename : /Volumes/MY WHOLE LIFE IS HERE/MORE Downloads/Sufjan Stevens - Carrie & Lowell (2015) [FLAC]/03 All Of Me Wants All Of You.flac
    Track gain               : -8.15 dB
    Peak                     : 0.966431
    CRC32 hash (test run)    : 8B0E9C76
    CRC32 hash               : 8B0E9C76
    CRC32 hash (skip zero)   : 5466B9DB
    AccurateRip v1 signature : 582883B8
    AccurateRip v2 signature : A84721AD
        ->Track not present in AccurateRip database.
    Statistics
        Read error                           : 0
        Jitter error (maybe fixed)           : 0
        Retry sector count                   : 0
        Damaged sector count                 : 0
Track 04
    Filename : /Volumes/MY WHOLE LIFE IS HERE/MORE Downloads/Sufjan Stevens - Carrie & Lowell (2015) [FLAC]/04 Drawn To The Blood.flac
    Track gain               : -4.47 dB
    Peak                     : 0.966309
    CRC32 hash (test run)    : 3F3D8889
    CRC32 hash               : 3F3D8889
    CRC32 hash (skip zero)   : 842C1DC1
    AccurateRip v1 signature : 98656402
    AccurateRip v2 signature : 99655BDC
        ->Track not present in AccurateRip database.
    Statistics
        Read error                           : 0
        Jitter error (maybe fixed)           : 0
        Retry sector count                   : 0
        Damaged sector count                 : 0
Track 05
    Filename : /Volumes/MY WHOLE LIFE IS HERE/MORE Downloads/Sufjan Stevens - Carrie & Lowell (2015) [FLAC]/05 Eugene.flac
    Track gain               : -2.68 dB
    Peak                     : 0.870239
    CRC32 hash (test run)    : 9369720D
    CRC32 hash               : 9369720D
    CRC32 hash (skip zero)   : 5B109CA0
    AccurateRip v1 signature : C18CD2BF
    AccurateRip v2 signature : 201BF73F
        ->Track not present in AccurateRip database.
    Statistics
        Read error                           : 0
        Jitter error (maybe fixed)           : 0
        Retry sector count                   : 0
        Damaged sector count                 : 0
Track 06
    Filename : /Volumes/MY WHOLE LIFE IS HERE/MORE Downloads/Sufjan Stevens - Carrie & Lowell (2015) [FLAC]/06 Fourth Of July.flac
    Track gain               : -6.46 dB
    Peak                     : 0.966339
    CRC32 hash (test run)    : AA95B723
    CRC32 hash               : AA95B723
    CRC32 hash (skip zero)   : 1172C59F
    AccurateRip v1 signature : 1AD6DDA3
    AccurateRip v2 signature : B7A8377B
        ->Track not present in AccurateRip database.
    Statistics
        Read error                           : 0
        Jitter error (maybe fixed)           : 0
        Retry sector count                   : 0
        Damaged sector count                 : 0
Track 07
    Filename : /Volumes/MY WHOLE LIFE IS HERE/MORE Downloads/Sufjan Stevens - Carrie & Lowell (2015) [FLAC]/07 The Only Thing.flac
    Track gain               : -7.34 dB
    Peak                     : 0.966461
    CRC32 hash (test run)    : 6BEC1744
    CRC32 hash               : 6BEC1744
    CRC32 hash (skip zero)   : BAC39925
    AccurateRip v1 signature : 6037E7F6
    AccurateRip v2 signature : 9C1A7FD8
        ->Track not present in AccurateRip database.
    Statistics
        Read error                           : 0
        Jitter error (maybe fixed)           : 0
        Retry sector count                   : 0
        Damaged sector count                 : 0
Track 08
    Filename : /Volumes/MY WHOLE LIFE IS HERE/MORE Downloads/Sufjan Stevens - Carrie & Lowell (2015) [FLAC]/08 Carrie & Lowell.flac
    Track gain               : -4.86 dB
    Peak                     : 0.966309
    CRC32 hash (test run)    : 86906D91
    CRC32 hash               : 86906D91
    CRC32 hash (skip zero)   : F4CB0CF1
    AccurateRip v1 signature : 2A15351C
    AccurateRip v2 signature : 5955DD60
        ->Track not present in AccurateRip database.
    Statistics
        Read error                           : 0
        Jitter error (maybe fixed)           : 0
        Retry sector count                   : 0
        Damaged sector count                 : 0
Track 09
    Filename : /Volumes/MY WHOLE LIFE IS HERE/MORE Downloads/Sufjan Stevens - Carrie & Lowell (2015) [FLAC]/09 John My Beloved.flac
    Track gain               : -4.51 dB
    Peak                     : 0.966400
    CRC32 hash (test run)    : 6EA600A8
    CRC32 hash               : 6EA600A8
    CRC32 hash (skip zero)   : C891108B
    AccurateRip v1 signature : C7036C4D
    AccurateRip v2 signature : 1C027A72
        ->Track not present in AccurateRip database.
    Statistics
        Read error                           : 0
        Jitter error (maybe fixed)           : 0
        Retry sector count                   : 0
        Damaged sector count                 : 0
Track 10
    Filename : /Volumes/MY WHOLE LIFE IS HERE/MORE Downloads/Sufjan Stevens - Carrie & Lowell (2015) [FLAC]/10 No Shade In The Shadow Of The Cross.flac
    Track gain               : -3.49 dB
    Peak                     : 0.855347
    CRC32 hash (test run)    : 9CF494F4
    CRC32 hash               : 9CF494F4
    CRC32 hash (skip zero)   : 0FC84DDE
    AccurateRip v1 signature : 0D65A151
    AccurateRip v2 signature : 48965B02
        ->Track not present in AccurateRip database.
    Statistics
        Read error                           : 0
        Jitter error (maybe fixed)           : 0
        Retry sector count                   : 0
        Damaged sector count                 : 0
Track 11
    Filename : /Volumes/MY WHOLE LIFE IS HERE/MORE Downloads/Sufjan Stevens - Carrie & Lowell (2015) [FLAC]/11 Blue Bucket Of Gold.flac
    Track gain               : -5.20 dB
    Peak                     : 0.966248
    CRC32 hash (test run)    : FD52E17D
    CRC32 hash               : FD52E17D
    CRC32 hash (skip zero)   : CA4AB3FF
    AccurateRip v1 signature : BBCC99B7
    AccurateRip v2 signature : A2CECA3C
        ->Track not present in AccurateRip database.
    Statistics
        Read error                           : 0
        Jitter error (maybe fixed)           : 0
        Retry sector count                   : 0
        Damaged sector count                 : 0
No errors occurred
End of status report
-----BEGIN XLD SIGNATURE-----
avDUDpMyg98yEBPzWrAPM9A.fRx24s3Bz6U3g1BeFwuTXYe_6jU0ZylG_gzgzF.fMXfU74NHH0k41wlZk9ez_osv57bAEEpPBAZseH0
-----END XLD SIGNATURE-----


===================================
百度下载:
游客,如果您要查看本帖隐藏内容请回复


115下载:
游客,如果您要查看本帖隐藏内容请回复
来自群组: 欧美流行



上一篇:希腊流行莱卡:Giorgos Mazonakis《11CD》1996-2015/FLAC/BD+115/4.42 G
下一篇:中英混血美女.独立流行:Jasmine Thompson《15CD》2013-2015/FLAC/BD+115
关于链接失效的说明(度盘+115盘+快传 好友分享的说明)
http://www.cdbao.net/thread-117499-1-1.html     
紧急通告:115,快传等网盘取消了分享功能礼包码链接全部失效
http://www.cdbao.net/thread-122759-1-1.html

0

主题

140

帖子

249

积分

乐坛新星

Rank: 2

积分
249
发表于 2015-6-19 18:54:47 | 显示全部楼层
为这些意想不到的曲调,值得额,谢谢LZ无私的奉献

0

主题

1

帖子

55

积分

新人会员,请认真回复,若恶意回复,直接封号

Rank: 1

积分
55

社区QQ达人

发表于 2015-6-19 23:21:23 | 显示全部楼层
感谢lz啊!这些资源太难找了!

0

主题

111

帖子

205

积分

乐坛新星

Rank: 2

积分
205
发表于 2015-6-20 11:05:03 | 显示全部楼层
在收集民谣音乐,很感谢楼主分享~~~~~~

0

主题

111

帖子

205

积分

乐坛新星

Rank: 2

积分
205
发表于 2015-6-20 11:07:00 | 显示全部楼层
在收集民谣音乐,很感谢楼主分享~~~~~~。。。。。
integral

7

主题

1026

帖子

1728

积分

当红偶像

Rank: 4

积分
1728

社区QQ达人

发表于 2015-6-23 13:38:53 | 显示全部楼层
这种民谣的感觉相当不错,静静听,静静感受

评分

参与人数 1CD +10 收起 理由
最终之战 + 10 认真回帖,给予加分奖励

查看全部评分

0

主题

609

帖子

801

积分

职业歌手

Rank: 3Rank: 3

积分
801
发表于 2015-6-23 22:50:42 | 显示全部楼层
这个看起来不错~下来仔细听听!@~~

0

主题

732

帖子

794

积分

职业歌手

Rank: 3Rank: 3

积分
794
发表于 2015-6-26 10:25:59 | 显示全部楼层
这张专辑,我找了很久了。今天终于在此找到。这是一张很稀有的专辑。资源上传很费时。感谢作者上传。

0

主题

732

帖子

794

积分

职业歌手

Rank: 3Rank: 3

积分
794
发表于 2015-6-26 10:35:31 | 显示全部楼层
绝佳的制作。值得拥有。一定要收藏。我喜欢蒐集各种不同类型音乐。谢谢分享,您辛苦了。

6

主题

503

帖子

486

积分

职业歌手

Rank: 3Rank: 3

积分
486
发表于 2015-6-27 13:04:05 | 显示全部楼层
很棒的一张唱片。值得细听。谢分享。

1

主题

399

帖子

611

积分

职业歌手

Rank: 3Rank: 3

积分
611

社区QQ达人

发表于 2015-6-29 19:20:00 | 显示全部楼层
看到专辑的介绍不由自主的就像把他下下来  仔细听   非常好听的民谣  谢谢楼主

1

主题

84

帖子

114

积分

新人会员,请认真回复,若恶意回复,直接封号

Rank: 1

积分
114
发表于 2015-7-24 16:20:51 | 显示全部楼层
好音乐,需要沉淀,真的很好听,感谢分享

0

主题

55

帖子

735

积分

职业歌手

Rank: 3Rank: 3

积分
735
发表于 2015-8-13 15:11:36 | 显示全部楼层
should have known better 这首不错          感谢分享
 成长值: 6705

0

主题

95

帖子

175

积分

VIP5

Rank: 8Rank: 8

积分
175
发表于 2015-8-17 05:13:50 | 显示全部楼层
根源的东西,我们也要怀念年,,,谢谢楼主。。。

0

主题

403

帖子

499

积分

职业歌手

Rank: 3Rank: 3

积分
499

社区QQ达人

发表于 2015-8-21 20:46:31 | 显示全部楼层
感觉歌手在卖萌 哈哈 谢谢楼主
您需要登录后才可以回帖 登录 | 注册

本版积分规则

快速回复 返回顶部 返回列表