最近看过此主题的会员

查看: 568|回复: 2

[华语] 原抓:音乐合辑 《映像人间 爱在百年》1995/整轨WAV/百度云

[复制链接]

166

主题

486

帖子

4万

积分

天王巨星

Rank: 7Rank: 7Rank: 7

积分
40878

灌水勋章

发表于 2018-9-14 20:00:29 | 显示全部楼层 |阅读模式

注册会员,获得无损资源下载地址,享受高品质音乐。

您需要 登录 才可以下载或查看,没有帐号?注册

x
专辑名称:映像人间 爱在百年 滚石版
歌手名称:星葛优、陈道明、姜文、刘晓庆、江珊、王志文、王姬、宁静、夏雨、严晓频、左翎
发行日期:1995年
专辑语言:国语
  纪念世界电影诞生一百周年
  百年纪念 一个人一生只能经历一次
  为着这人类文明的重要发现
  我们经历了 付出了
  —无怨无悔的努力
  1995年5月19日,为纪念世界电影诞生一百周年,中国电影诞生九十周年,斥资百万,由国内著名影视明星葛优、陈道明、姜文、刘晓庆、江珊、王志文、王姬、宁静、夏雨、严晓频、左翎首次联袂“献声”《爱在百年》,迄今为止,国内唱片历史上绝无仅有。同时,在国内唱片发行企业首次迈出了依托政府,联合各界,运用全新的销售理念——买唱片,得大奖,为打击盗版做贡献!
  著名音乐制作人李年倾情打造,11位当代中国巨星,11种最富映像的声音,11首动听歌曲,不可不藏!
曲目:
1. 阳光灿烂的日子-夏雨
2. 你是第一个走进我的人-宁静
3. 情在无言中-左翎
4. 红颜为你而放-江珊
5. 我的路-刘晓庆
6. 温柔的听众-严晓频
7. 活着-葛优
8. 我不是瞬间的温柔-王姬
9. 不说-陈道明
10. 红粉-王志文
11. 爱在百年-姜文等

游客,如果您要查看本帖隐藏内容请回复


cover.jpg

CD.jpg

back.jpg

评分

参与人数 1CD +240 收起 理由
最终之战 + 240 感谢分享资源,CD包因你而精彩.

查看全部评分





原抓:吴卓羲2006年EP《FAST FORWARD》2006/BD/FLAC/
飞鱼原抓:Aqua《Aquarium》1997 整轨WAV+LOG/百度

166

主题

486

帖子

4万

积分

天王巨星

Rank: 7Rank: 7Rank: 7

积分
40878

灌水勋章

 楼主| 发表于 2018-9-14 20:01:32 | 显示全部楼层
REM DISCID 900B050B
REM COMMENT ExactAudioCopy v1.3
TITLE "爱在百年"
FILE "未知艺术家 - 未知标题.wav" WAVE
  TRACK 01 AUDIO
    TITLE "阳光灿烂的日子"
    PERFORMER "夏雨"
    INDEX 01 00:00:00
  TRACK 02 AUDIO
    TITLE "你是第一个走近我的人"
    PERFORMER "宁静"
    INDEX 00 04:05:08
    INDEX 01 04:06:47
  TRACK 03 AUDIO
    TITLE "情在无言中"
    PERFORMER "左翎"
    INDEX 00 07:55:61
    INDEX 01 07:57:25
  TRACK 04 AUDIO
    TITLE "红颜为你开放"
    PERFORMER "江珊"
    INDEX 00 11:38:02
    INDEX 01 11:39:45
  TRACK 05 AUDIO
    TITLE "我的路"
    PERFORMER "刘晓庆"
    INDEX 00 15:58:54
    INDEX 01 16:00:17
  TRACK 06 AUDIO
    TITLE "温柔的听众"
    PERFORMER "严晓频"
    INDEX 00 20:40:29
    INDEX 01 20:41:65
  TRACK 07 AUDIO
    TITLE "活着"
    PERFORMER "葛优"
    INDEX 00 25:16:12
    INDEX 01 25:17:45
  TRACK 08 AUDIO
    TITLE "我不是瞬间的温柔"
    PERFORMER "王姬"
    INDEX 00 29:27:03
    INDEX 01 29:28:50
  TRACK 09 AUDIO
    TITLE "不说"
    PERFORMER "陈道明"
    INDEX 01 33:23:22
  TRACK 10 AUDIO
    TITLE "红粉"
    PERFORMER "王志文"
    INDEX 00 37:23:61
    INDEX 01 37:25:27
  TRACK 11 AUDIO
    TITLE "爱在百年"
    PERFORMER "群星"
    INDEX 00 42:35:07
    INDEX 01 42:36:50
 成长值: 1620

0

主题

216

帖子

560

积分

VIP2

Rank: 5Rank: 5

积分
560

社区QQ达人

发表于 2018-10-20 07:01:00 | 显示全部楼层
感谢楼主分享爱在百年
您需要登录后才可以回帖 登录 | 注册

本版积分规则

支付宝红包
快速回复 返回顶部 返回列表