最近看过此主题的会员

查看: 3266|回复: 16

[欧美] KING OF POP 法国版

[复制链接]
 成长值: 40307

110

主题

488

帖子

1万

积分

特邀嘉宾

Rank: 9Rank: 9Rank: 9

积分
13720

分享勋章以坛为家名人勋章灌水勋章

发表于 2012-9-1 15:52:24 | 显示全部楼层 |阅读模式

注册会员,获得无损资源下载地址,享受高品质音乐。

您需要 登录 才可以下载或查看,没有帐号?注册

x
本帖最后由 宾布 于 2013-2-4 22:26 编辑

King of Pop 是美国歌手迈克尔·杰克逊的一张合辑,在其50岁生日(2008年8月29日)当天发布。这张专辑与以前的专辑不同,这张专辑是通过世界各国的歌迷投票选出各国版本内包含的歌曲。专辑的名称来源于杰克逊的称号“King of Pop”(流行乐天王)。2008年8月22日,第一个版本德国版(与瑞士版相同)发布。这张专辑已在26个国家或地区发行,每个国家的歌曲表和发布日期略有不同,但只有Billie Jean在世界各国版本中都有出现。目前这张专辑在全球范围内已有500万张的销售量。
08103121192472.jpg
“King of Pop——法国歌迷的选择”已于12月12日发布。

     Disc 1 - Time 75:27

    "Billie Jean"
    "Black or White"
    "Beat It"
    "Off the Wall"
    "Thriller"
    "Smooth Criminal"
    "Man in the Mirror"
    "Remember the Time"
    "Human Nature"
    "Ghosts"
    "Who Is It"
    "Blood on the Dance Floor"
    "One More Chance"
    "Earth Song"
    "Heal the World"
    "Say Say Say"
    "Thriller Megamix"

   

     Disc 2 - Time 77:21

    "Don't Stop 'til You Get Enough"
    "Bad"
    "Wanna Be Startin' Somethin'"
    "Rock with You"
    "The Way You Make Me Feel"
    "They Don't Care About Us"
    "Dirty Diana"
    "P.Y.T. (Pretty Young Thing)"
    "You Are Not Alone"
    "Speechless"
    "Whatever Happens"
    "Cry"
    "Will You Be There"
    "Workin' Day and Night"
    "You Rock My World"
    "Dangerous"
    "Got the Hots"

Deluxe box set

"King of Pop - The French Fans' Selection" - Deluxe Box Set Edition was released on the same day with a 3cd bonus disc.

     Disc 3 - Time 74:00

    "Carousel"
    "Rock With You (Original LP Version)"
    "Stranger In Moscow"
    "The Girl Is Mine"
    "The Way You Love Me"
    "Is It Scary"
    "Childhood"
    "Bad (Dance Extended Mix)"
    "Wanna Be Startin' Somethin' (Extended 12" Mix)"
    "Billie Jean (Original 12" Version)"
    "Another Part Of Me (Extended Dance Mix)"
    "The Way You Make Me Feel (Dance Extended Mix)"
    "Black or White (The Civilles & Cole House/Club Mix)"



CD发行介绍
唱片公司 Sony Music
发行编号 88697356312

EAC抓轨
已安装ASPI接口
在歌曲文件夹里有Log日志报告,Win 32接口为ASPI安装后的默认接口(非NERO的ASPI)


发布人:
这张合辑中挑选的歌曲可谓花样百出,法国歌迷的品位还是不错的!
喜欢的朋友们别错过



下载地址

Michael's Fan

评分

参与人数 1CD +42 收起 理由
James + 42 很好的资源!

查看全部评分





Michael Jackson 《Blood On The Dance Floor/ History In The Mix》1997/FLAC/BD
自购自压 emi 超時尚夜店 班迪特舞曲精選1[Flac整轨][旋风]
 成长值: 40307

110

主题

488

帖子

1万

积分

特邀嘉宾

Rank: 9Rank: 9Rank: 9

积分
13720

分享勋章以坛为家名人勋章灌水勋章

发表于 2012-9-1 15:52:26 | 显示全部楼层
想先了解CD提取质量的朋友们先看日志

Disc 1

Exact Audio Copy V0.99 prebeta 5 from 4. May 2009

EAC extraction logfile from 30. August 2012, 15:34

MICHAEL JACKSON / KING OF POP (THE FRCNCH FANS'SELECTION) CD1

Used drive  : PLEXTOR CD-R   PREMIUM2   Adapter: 2  ID: 0

Read mode               : Secure
Utilize accurate stream : Yes
Defeat audio cache      : Yes
Make use of C2 pointers : No

Read offset correction                      : 30
Overread into Lead-In and Lead-Out          : No
Fill up missing offset samples with silence : Yes
Delete leading and trailing silent blocks   : No
Null samples used in CRC calculations       : Yes
Used interface                              : Native Win32 interface for Win NT & 2000

Used output format : Internal WAV Routines
Sample format      : 44.100 Hz; 16 Bit; Stereo


TOC of the extracted CD

     Track |   Start  |  Length  | Start sector | End sector
    ---------------------------------------------------------
        1  |  0:00.00 |  4:53.45 |         0    |    22019   
        2  |  4:53.45 |  4:16.15 |     22020    |    41234   
        3  |  9:09.60 |  4:18.06 |     41235    |    60590   
        4  | 13:27.66 |  4:06.43 |     60591    |    79083   
        5  | 17:34.34 |  5:12.36 |     79084    |   102519   
        6  | 22:46.70 |  4:17.60 |    102520    |   121854   
        7  | 27:04.55 |  5:19.05 |    121855    |   145784   
        8  | 32:23.60 |  4:00.02 |    145785    |   163786   
        9  | 36:23.62 |  4:05.69 |    163787    |   182230   
       10  | 40:29.56 |  5:14.27 |    182231    |   205807   
       11  | 45:44.08 |  3:59.51 |    205808    |   223783   
       12  | 49:43.59 |  4:13.50 |    223784    |   242808   
       13  | 53:57.34 |  3:49.61 |    242809    |   260044   
       14  | 57:47.20 |  5:01.56 |    260045    |   282675   
       15  | 62:49.01 |  4:32.29 |    282676    |   303104   
       16  | 67:21.30 |  3:55.48 |    303105    |   320777   
       17  | 71:17.03 |  4:09.61 |    320778    |   339513   
       18  | 77:58.64 |  1:19.38 |    350914    |   356876   


Range status and errors

Selected range

     Filename F:\2009 KING OF POP - EDITION COLLECTOR (The French Edition)\MICHAEL JACKSON - KING OF POP (THE FRCNCH FANS'SELECTION) CD1.wav

     Peak level 100.0 %
     Range quality 100.0 %
     Test CRC E8F5FE5F
     Copy CRC E8F5FE5F
     Copy OK

No errors occurred


AccurateRip summary

Track  1  accurately ripped (confidence 2)  [9864B70C]
Track  2  accurately ripped (confidence 2)  [26CB7EAB]
Track  3  accurately ripped (confidence 2)  [C83CD4E9]
Track  4  accurately ripped (confidence 2)  [4354C976]
Track  5  accurately ripped (confidence 2)  [B8630E36]
Track  6  accurately ripped (confidence 2)  [B4E8D184]
Track  7  accurately ripped (confidence 2)  [CEEBA3BE]
Track  8  accurately ripped (confidence 2)  [07AFA228]
Track  9  accurately ripped (confidence 2)  [7F251FCC]
Track 10  accurately ripped (confidence 2)  [F5510D26]
Track 11  accurately ripped (confidence 2)  [41E9F63E]
Track 12  accurately ripped (confidence 2)  [81674448]
Track 13  accurately ripped (confidence 2)  [8E2B9988]
Track 14  accurately ripped (confidence 2)  [61D9D3C7]
Track 15  accurately ripped (confidence 2)  [C0786C0D]
Track 16  accurately ripped (confidence 2)  [80D4FC29]
Track 17  accurately ripped (confidence 2)  [D8E4B4D5]

All tracks accurately ripped

End of status report
 成长值: 40307

110

主题

488

帖子

1万

积分

特邀嘉宾

Rank: 9Rank: 9Rank: 9

积分
13720

分享勋章以坛为家名人勋章灌水勋章

发表于 2012-9-1 15:52:25 | 显示全部楼层
Disc 2

Exact Audio Copy V0.99 prebeta 5 from 4. May 2009

EAC extraction logfile from 30. August 2012, 17:41

MICHAEL JACKSON / KING OF POP (THE FRCNCH FANS'SELECTION) CD2

Used drive  : PLEXTOR CD-R   PREMIUM2   Adapter: 2  ID: 0

Read mode               : Secure
Utilize accurate stream : Yes
Defeat audio cache      : Yes
Make use of C2 pointers : No

Read offset correction                      : 30
Overread into Lead-In and Lead-Out          : No
Fill up missing offset samples with silence : Yes
Delete leading and trailing silent blocks   : No
Null samples used in CRC calculations       : Yes
Used interface                              : Native Win32 interface for Win NT & 2000

Used output format : Internal WAV Routines
Sample format      : 44.100 Hz; 16 Bit; Stereo


TOC of the extracted CD

     Track |   Start  |  Length  | Start sector | End sector
    ---------------------------------------------------------
        1  |  0:00.00 |  3:59.74 |         0    |    17998   
        2  |  3:59.74 |  4:07.30 |     17999    |    36553   
        3  |  8:07.29 |  4:20.62 |     36554    |    56115   
        4  | 12:28.16 |  3:23.50 |     56116    |    71390   
        5  | 15:51.66 |  4:58.06 |     71391    |    93746   
        6  | 20:49.72 |  4:10.53 |     93747    |   112549   
        7  | 25:00.50 |  4:40.69 |    112550    |   133618   
        8  | 29:41.44 |  4:00.03 |    133619    |   151621   
        9  | 33:41.47 |  4:55.41 |    151622    |   173787   
       10  | 38:37.13 |  3:18.43 |    173788    |   188680   
       11  | 41:55.56 |  4:56.27 |    188681    |   210907   
       12  | 46:52.08 |  5:01.08 |    210908    |   233490   
       13  | 51:53.16 |  3:39.42 |    233491    |   249957   
       14  | 55:32.58 |  5:13.60 |    249958    |   273492   
       15  | 60:46.43 |  5:07.37 |    273493    |   296554   
       16  | 65:54.05 |  6:59.02 |    296555    |   327981   
       17  | 72:53.07 |  4:27.55 |    327982    |   348061   


Range status and errors

Selected range

     Filename F:\2009 KING OF POP - EDITION COLLECTOR (The French Edition)\MICHAEL JACKSON - KING OF POP (THE FRCNCH FANS'SELECTION) CD2.wav

     Peak level 100.0 %
     Range quality 100.0 %
     Test CRC 580FAD4D
     Copy CRC 580FAD4D
     Copy OK

No errors occurred


AccurateRip summary

Track  1  accurately ripped (confidence 11)  [815747F9]
Track  2  accurately ripped (confidence 11)  [84500080]
Track  3  accurately ripped (confidence 11)  [F35315F0]
Track  4  accurately ripped (confidence 11)  [F03F40EC]
Track  5  accurately ripped (confidence 11)  [CA0B96FE]
Track  6  accurately ripped (confidence 11)  [D9AB319C]
Track  7  accurately ripped (confidence 11)  [5DA5DB32]
Track  8  accurately ripped (confidence 11)  [5E0A9004]
Track  9  accurately ripped (confidence 11)  [BD55692D]
Track 10  accurately ripped (confidence 11)  [52F5D393]
Track 11  accurately ripped (confidence 11)  [98320976]
Track 12  accurately ripped (confidence 10)  [81AF552C]
Track 13  accurately ripped (confidence 11)  [4260C45F]
Track 14  accurately ripped (confidence 11)  [EDBC2F3C]
Track 15  accurately ripped (confidence 10)  [66787E6A]
Track 16  accurately ripped (confidence 11)  [215D1884]
Track 17  accurately ripped (confidence 10)  [E5325A1A]

All tracks accurately ripped

End of status report
 成长值: 40307

110

主题

488

帖子

1万

积分

特邀嘉宾

Rank: 9Rank: 9Rank: 9

积分
13720

分享勋章以坛为家名人勋章灌水勋章

发表于 2012-9-1 15:52:27 | 显示全部楼层
Disc 3

Exact Audio Copy V0.99 prebeta 5 from 4. May 2009

EAC extraction logfile from 30. August 2012, 19:11

MICHAEL JACKSON / KING OF POP (THE FRCNCH FANS'SELECTION) CD3

Used drive  : PLEXTOR CD-R   PREMIUM2   Adapter: 2  ID: 0

Read mode               : Secure
Utilize accurate stream : Yes
Defeat audio cache      : Yes
Make use of C2 pointers : No

Read offset correction                      : 30
Overread into Lead-In and Lead-Out          : No
Fill up missing offset samples with silence : Yes
Delete leading and trailing silent blocks   : No
Null samples used in CRC calculations       : Yes
Used interface                              : Native Win32 interface for Win NT & 2000

Used output format : Internal WAV Routines
Sample format      : 44.100 Hz; 16 Bit; Stereo


TOC of the extracted CD

     Track |   Start  |  Length  | Start sector | End sector
    ---------------------------------------------------------
        1  |  0:00.00 |  3:40.01 |         0    |    16500   
        2  |  3:40.01 |  3:40.04 |     16501    |    33004   
        3  |  7:20.05 |  5:22.06 |     33005    |    57160   
        4  | 12:42.11 |  3:41.57 |     57161    |    73792   
        5  | 16:23.68 |  4:30.01 |     73793    |    94043   
        6  | 20:53.69 |  5:36.05 |     94044    |   119248   
        7  | 26:29.74 |  4:27.67 |    119249    |   139340   
        8  | 30:57.66 |  8:23.44 |    139341    |   177109   
        9  | 39:21.35 |  6:32.25 |    177110    |   206534   
       10  | 45:53.60 |  6:19.73 |    206535    |   235032   
       11  | 52:13.58 |  6:18.68 |    235033    |   263450   
       12  | 58:32.51 |  7:53.65 |    263451    |   298990   
       13  | 66:26.41 |  7:33.65 |    298991    |   333030   


Range status and errors

Selected range

     Filename F:\2009 KING OF POP - EDITION COLLECTOR (The French Edition)\MICHAEL JACKSON - KING OF POP (THE FRCNCH FANS'SELECTION) CD3.wav

     Peak level 100.0 %
     Range quality 100.0 %
     Test CRC 39134152
     Copy CRC 39134152
     Copy OK

No errors occurred


AccurateRip summary

Track  1  cannot be verified as accurate (confidence 3)  [E2119586], AccurateRip returned [12A1D288]
Track  2  cannot be verified as accurate (confidence 3)  [BCAA38CB], AccurateRip returned [47A23B4D]
Track  3  cannot be verified as accurate (confidence 3)  [1ECA9C51], AccurateRip returned [05A53500]
Track  4  cannot be verified as accurate (confidence 3)  [894777DC], AccurateRip returned [535E372C]
Track  5  cannot be verified as accurate (confidence 3)  [FDC1123B], AccurateRip returned [3DF0E502]
Track  6  cannot be verified as accurate (confidence 3)  [10197AE0], AccurateRip returned [5889A1A9]
Track  7  cannot be verified as accurate (confidence 3)  [DB7A7B84], AccurateRip returned [BB5FF2B0]
Track  8  cannot be verified as accurate (confidence 3)  [CB20A385], AccurateRip returned [99D838BA]
Track  9  cannot be verified as accurate (confidence 3)  [D89177A1], AccurateRip returned [31E5D507]
Track 10  cannot be verified as accurate (confidence 3)  [03FF8A2C], AccurateRip returned [35211B82]
Track 11  cannot be verified as accurate (confidence 3)  [3E78FA80], AccurateRip returned [229DF87A]
Track 12  cannot be verified as accurate (confidence 3)  [88AA6228], AccurateRip returned [E4E40D1C]
Track 13  cannot be verified as accurate (confidence 3)  [15385FC2], AccurateRip returned [3F361C84]

No tracks could be verified as accurate
You may have a different pressing from the one(s) in the database

End of status report

0

主题

46

帖子

54

积分

新人会员,请认真回复,若恶意回复,直接封号

Rank: 1

积分
54

社区QQ达人

发表于 2012-9-1 18:30:09 | 显示全部楼层
顶啊!!!!

802

主题

866

帖子

4077

积分

禁止发言

积分
4077
发表于 2012-9-1 18:32:34 | 显示全部楼层
给力
谢谢

0

主题

61

帖子

91

积分

新人会员,请认真回复,若恶意回复,直接封号

Rank: 1

积分
91
发表于 2012-9-1 22:13:59 | 显示全部楼层
太给力了,谢谢!

0

主题

99

帖子

147

积分

新人会员,请认真回复,若恶意回复,直接封号

Rank: 1

积分
147

社区QQ达人

发表于 2012-9-1 22:27:01 | 显示全部楼层
不死的MJ

0

主题

106

帖子

201

积分

乐坛新星

Rank: 2

积分
201
发表于 2012-9-2 23:15:56 | 显示全部楼层
Forever MJ!
 成长值: 40309

582

主题

3773

帖子

5万

积分

特邀嘉宾

Rank: 9Rank: 9Rank: 9

积分
55448

社区QQ达人分享勋章以坛为家名人勋章灌水勋章精华帖达人

发表于 2012-9-3 15:08:27 | 显示全部楼层
终于有空上来瞻仰宾布的浦科特新抓的作品了!
dimalam是谁?就是在你身边默默分享音乐心情的那个人。淡淡的忧伤,双面人般的男子。。。

0

主题

27

帖子

69

积分

新人会员,请认真回复,若恶意回复,直接封号

Rank: 1

积分
69

社区QQ达人

发表于 2012-9-3 15:35:18 | 显示全部楼层
绝对好东西 感觉lz分享
 成长值: 40307

110

主题

488

帖子

1万

积分

特邀嘉宾

Rank: 9Rank: 9Rank: 9

积分
13720

分享勋章以坛为家名人勋章灌水勋章

发表于 2012-9-3 17:44:49 | 显示全部楼层
Free_Man 发表于 2012-9-3 15:35
绝对好东西 感觉lz分享

谢谢你的支持{:soso_e100:}                                

 成长值: 40307

110

主题

488

帖子

1万

积分

特邀嘉宾

Rank: 9Rank: 9Rank: 9

积分
13720

分享勋章以坛为家名人勋章灌水勋章

发表于 2012-9-3 20:32:18 | 显示全部楼层
dimalam 发表于 2012-9-3 15:08
终于有空上来瞻仰宾布的浦科特新抓的作品了!

不敢当!
谢谢朋友支持,瞻仰还是免了{:soso_e143:}

0

主题

118

帖子

237

积分

乐坛新星

Rank: 2

积分
237
发表于 2012-9-11 23:37:33 | 显示全部楼层
下来听听

3

主题

1046

帖子

1430

积分

当红偶像

Rank: 4

积分
1430
发表于 2012-10-20 21:37:45 | 显示全部楼层
永远的偶像  永远的经典

点评

永远都是经典!  详情 回复 发表于 2012-11-22 07:46
您需要登录后才可以回帖 登录 | 注册

本版积分规则

快速回复 返回顶部 返回列表