最近看过此主题的会员

查看: 9348|回复: 141

怡人Hi-Fi音乐《顶尖发烧3》wav 分轨 115盘打包下载

  [复制链接]
integral
 成长值: 31260

5620

主题

1万

帖子

39万

积分

音乐掌门人

无损音乐爱好者

Rank: 20Rank: 20Rank: 20Rank: 20Rank: 20

积分
398234

社区QQ达人视频达人名人勋章分享勋章灌水勋章以坛为家VIP勋章精华帖达人推广功臣

发表于 2012-7-15 19:53:14 | 显示全部楼层 |阅读模式

注册会员,获得无损资源下载地址,享受高品质音乐。

您需要 登录 才可以下载或查看,没有帐号?注册

x
专辑名称:怡人Hi-Fi音乐 顶尖发烧3
专辑艺人:群星
资源品质:分轨wav
制作公司:广东怡人音像文化传播有限公司
出版公司:广东音像出版社出版发行
ISRC:CN-F18-06-430-00/A.J6
出版序号:DCD-1687
专辑介绍: 怡人 顶尖发烧 再度出击,合辑(顶尖发烧3)邀您再享听觉盛
宴.在歌曲的选择上堪称优中之优,(顶尖发烧3)从怡人唱片纯美发烧系列
精心收录的歌曲,均为各张专辑里的上乘之作,用聆听一起将悦耳乐律一
网打尽!用听觉一起将怡人音乐进行到底!

怡人Hi-Fi音乐《顶尖发烧3》wav 分轨 115盘打包下载

怡人Hi-Fi音乐《顶尖发烧3》wav 分轨 115盘打包下载



Exact Audio Copy V0.99 prebeta 5 from 4. May 2009

EAC 抓取日志文件从27. 二月 2011, 16:54

未知艺术家 / 未知标题

使用驱动器  :SONY    DVD RW DRU-V200A   Adapter: 5  ID: 0

读取模式     : 保护
使用精确流   : 是
废除音频缓冲 : 是
使用 C2 指针 : 否

读取偏移校正                   : 48
读取 Lead-In 和 Lead-Out       : 否
用静音填充抓取中丢失偏移的采样 : 是
去除首尾静音块                 : 否
在 CRC 计算中使用了空样本      : 是
已用接口                       : Win NT 及 2000 本地 Win32 接口
间隙处理                       : 未检出,故附加至前一音轨

所用输出格式 : 内部 WAV 函数
样本格式     : 44.100 Hz;16 Bit;立体声


被抓轨 CD 的 TOC

    音轨 |   开始   |   长度   | 起始扇区 | 结尾扇区
   --------------------------------------------------
      1  |  0:00.00 |  5:27.05 |       0  |   24529  
       2  |  5:27.05 |  4:49.50 |   24530  |   46254  
       3  | 10:16.55 |  4:57.63 |   46255  |   68592  
       4  | 15:14.43 |  4:34.49 |   68593  |   89191  
       5  | 19:49.17 |  4:11.23 |   89192  |  108039  
       6  | 24:00.40 |  4:32.49 |  108040  |  128488  
       7  | 28:33.14 |  3:50.31 |  128489  |  145769  
       8  | 32:23.45 |  4:36.29 |  145770  |  166498  
       9  | 36:59.74 |  4:33.04 |  166499  |  186977  
      10  | 41:33.03 |  4:37.16 |  186978  |  207768  
      11  | 46:10.19 |  5:28.23 |  207769  |  232391  
      12  | 51:38.42 |  5:05.09 |  232392  |  255275  

曲目:

01 发如雪
02 蓝色的故乡
03 不要再来伤害我
04 你
05 车站
06 野蛮游戏
07 我不想长大
08 遥远的梦
09 心灵睡过的地方
10 如果下辈子我还记得你
11 可爱的一朵玫瑰花
12 祝福
下载:
解压密码:www.cdbao.net
游客,如果您要查看本帖隐藏内容请回复





[FLAC][CUE][整轨][115]铁三角耳机试音碟
群星-妙音唱片《十二女声》发烧音乐 WAV 115盘打包下载
 成长值: 40200

1

主题

328

帖子

452

积分

VIP6

Rank: 9Rank: 9Rank: 9

积分
452

社区QQ达人

发表于 2012-7-15 20:49:20 | 显示全部楼层
坐在沙发上~ 聆听~

0

主题

13

帖子

70

积分

新人会员,请认真回复,若恶意回复,直接封号

Rank: 1

积分
70

社区QQ达人

发表于 2012-7-15 21:30:02 | 显示全部楼层
下载了

0

主题

272

帖子

387

积分

乐坛新星

Rank: 2

积分
387

社区QQ达人

发表于 2012-7-15 21:40:48 | 显示全部楼层
看起来好像不错

0

主题

6

帖子

26

积分

新人会员,请认真回复,若恶意回复,直接封号

Rank: 1

积分
26
发表于 2012-7-15 23:02:38 | 显示全部楼层
好东西支持啊

0

主题

306

帖子

372

积分

禁止发言

积分
372

社区QQ达人

发表于 2012-7-16 01:57:27 | 显示全部楼层
听听   看看

0

主题

580

帖子

586

积分

职业歌手

Rank: 3Rank: 3

积分
586
发表于 2012-7-16 08:58:20 | 显示全部楼层
都是经典的曲子,谢谢了

0

主题

78

帖子

152

积分

乐坛新星

Rank: 2

积分
152

社区QQ达人

发表于 2012-7-16 09:20:26 | 显示全部楼层
出版年代呢?呵呵,谢谢

0

主题

114

帖子

158

积分

乐坛新星

Rank: 2

积分
158
发表于 2012-7-16 12:16:23 | 显示全部楼层
如果您要查看本帖隐藏内容请回复

0

主题

75

帖子

-236

积分

恶意回复被扣没分了,积分增加方法见置顶帖

积分
-236

社区QQ达人

发表于 2012-7-16 12:32:23 | 显示全部楼层
DDDDDDDDDDDDD

0

主题

67

帖子

162

积分

新人会员,请认真回复,若恶意回复,直接封号

Rank: 1

积分
162
发表于 2012-7-16 13:41:18 | 显示全部楼层
都是经典的曲子,谢谢了

0

主题

67

帖子

162

积分

新人会员,请认真回复,若恶意回复,直接封号

Rank: 1

积分
162
发表于 2012-7-16 13:41:24 | 显示全部楼层
都是经典的曲子,谢谢了

0

主题

31

帖子

115

积分

乐坛新星

Rank: 2

积分
115
发表于 2012-7-16 13:55:58 | 显示全部楼层
好声音要下载!

0

主题

152

帖子

-22

积分

恶意回复被扣没分了,积分增加方法见置顶帖

积分
-22

社区QQ达人

发表于 2012-7-16 21:28:16 | 显示全部楼层
辛苦辛苦辛苦辛苦科学

0

主题

91

帖子

294

积分

VIP1

Rank: 4

积分
294

社区QQ达人

发表于 2012-7-16 22:07:44 | 显示全部楼层
感谢楼主了 谢谢分享
您需要登录后才可以回帖 登录 | 注册

本版积分规则

快速回复 返回顶部 返回列表