最近看过此主题的会员

查看: 55|回复: 1

[LIVE] Of Mice And Men《Wacken Open Air》2019/MKV/BD

[复制链接]

31

主题

123

帖子

8064

积分

人气天王

Rank: 5Rank: 5

积分
8064
发表于 2022-8-6 02:15:55 | 显示全部楼层 |阅读模式

注册会员,获得无损资源下载地址,享受高品质音乐。

您需要 登录 才可以下载或查看,没有帐号?注册

x
Wacken Open Air 2019.mkv
Format                         : Matroska
Format version                 : Version 4
File size                      : 4.32 GiB
Duration                       : 1 h 7 min
Overall bit rate               : 9 101 kb/s
Encoded date                   : UTC 2019-08-07 10:48:36
Writing application            : mkvmerge v7.1.0 ('Good Love') 64bit built on Jul 27 2014 13:06:55
Writing library                : libebml v1.3.0 + libmatroska v1.4.1

Video
ID                             : 1
Format                         : AVC
Format/Info                    : Advanced Video Codec
Format profile                 : [email protected]
Format settings                : CABAC / 4 Ref Frames
Format settings, CABAC         : Yes
Format settings, Reference fra : 4 frames
Codec ID                       : V_MPEG4/ISO/AVC
Duration                       : 1 h 7 min
Bit rate mode                  : Constant
Bit rate                       : 9 000 kb/s
Width                          : 1 920 pixels
Height                         : 1 080 pixels
Display aspect ratio           : 16:9
Frame rate mode                : Constant
Frame rate                     : 25.000 FPS
Color space                    : YUV
Chroma subsampling             : 4:2:0
Bit depth                      : 8 bits
Scan type                      : Progressive
Bits/(Pixel*Frame)             : 0.174
Stream size                    : 4.26 GiB (99%)
Writing library                : x264 core 148
Transfer characteristics       : BT.709
Matrix coefficients            : BT.709

Audio
ID                             : 2
Format                         : AAC LC
Format/Info                    : Advanced Audio Codec Low Complexity
Codec ID                       : A_AAC-2
Duration                       : 1 h 7 min
Bit rate                       : 128 kb/s
Channel(s)                     : 2 channels
Channel layout                 : L R
Sampling rate                  : 48.0 kHz
Frame rate                     : 46.875 FPS (1024 SPF)
Compression mode               : Lossy
Stream size                    : 62.2 MiB (1%)
Default                        : Yes
Forced                         : No
链接:https://pan.baidu.com/s/1iv0rfHzoDGloqdagYj4ejQ
提取码:
游客,如果您要查看本帖隐藏内容请回复





更多图片 小图 大图
组图打开中,请稍候......

评分

参与人数 1CD +400 收起 理由
最终之战 + 400

查看全部评分

Pantera铁粉

0

主题

39

帖子

151

积分

乐坛新星

Rank: 2

积分
151
发表于 2022-8-6 11:09:20 | 显示全部楼层
谢谢分享·下来看看·
您需要登录后才可以回帖 登录 | 注册

本版积分规则

快速回复 返回顶部 返回列表