最近看过此主题的会员

查看: 156|回复: 9

[纯音乐] 爵士吉他怪才:Grant Green《Green Street》1961/2014/24bit 192kHz

[复制链接]

267

主题

985

帖子

5万

积分

天王巨星

Rank: 7Rank: 7Rank: 7

积分
55937

灌水勋章

QQ
发表于 2021-7-22 10:35:45 | 显示全部楼层 |阅读模式

注册会员,获得无损资源下载地址,享受高品质音乐。

您需要 登录 才可以下载或查看,没有帐号?注册

x
sleeve.jpg


TRACKLIST

1No. 1 Green Street
Written-By – Grant Green
2'Round About Midnight
Written-By – Monk*
3Grant's Dimensions
Written-By – Grant Green
4Green With Envy
Written-By – Grant Green
5Alone Together
Written-By [Uncredited] – Schwartz - Dietz*

链接: https://pan.baidu.com/s/11MIeelbewA22KhnUPwYtAw

游客,本帖隐藏的内容需要积分高于 200 才可浏览,您当前积分为 0


Technical

technical.png


DR Value

foobar2000 1.6.6 / Dynamic Range Meter 1.1.1
log date: 2021-07-22 10:18:27

--------------------------------------------------------------------------------
Analyzed: Grant Green / Green Street
--------------------------------------------------------------------------------

DR         Peak         RMS     Duration Track
--------------------------------------------------------------------------------
DR13      -0.41 dB   -17.10 dB      7:19 01-No. 1 Green Street
DR17      -0.40 dB   -19.74 dB      7:02 02-'Round About Midnight
DR14       0.00 dB   -18.15 dB      7:55 03-Grant's Dimensions
DR14      -0.49 dB   -18.33 dB      9:45 04-Green With Envy
DR15       0.00 dB   -17.44 dB      7:15 05-Alone Together
--------------------------------------------------------------------------------

Number of tracks:  5
Official DR value: DR15

Samplerate:        192000 Hz
Channels:          2
Bits per sample:   24
Bitrate:           5640 kbps
Codec:             FLAC
================================================================================



评分

参与人数 1CD +160 收起 理由
最终之战 + 160

查看全部评分





当代爵士:Archie Shepp & Jason Moran《Let My People Go》2021/24bit 48kHz
Hans Zimmer-Paul's Dream(沙丘DUNE)2021电影原声OST[24Bit-48kHz]BD/FLAC

Click the icon and register for free

0

主题

1642

帖子

504

积分

职业歌手

Rank: 3Rank: 3

积分
504
发表于 2021-7-22 13:25:28 | 显示全部楼层
喜欢这样的音乐

0

主题

117

帖子

228

积分

乐坛新星

Rank: 2

积分
228
发表于 2021-7-22 14:20:31 | 显示全部楼层
喜欢这样的音乐

1

主题

388

帖子

1529

积分

当红偶像

Rank: 4

积分
1529
发表于 2021-7-22 14:39:54 | 显示全部楼层
继续收JAZZ的好东东,谢了!
integral

1

主题

2532

帖子

1793

积分

当红偶像

Rank: 4

积分
1793

社区QQ达人

发表于 2021-7-22 15:14:36 | 显示全部楼层
谢谢,好听,再次感谢!!!

1

主题

4569

帖子

6852

积分

人气天王

Rank: 5Rank: 5

积分
6852
发表于 2021-7-22 15:28:07 | 显示全部楼层
楼主好东东又来了

0

主题

1593

帖子

1026

积分

职业歌手

Rank: 3Rank: 3

积分
1026
发表于 2021-7-23 09:10:24 | 显示全部楼层
玩爵士的都像个艺术家

0

主题

1897

帖子

654

积分

职业歌手

Rank: 3Rank: 3

积分
654
发表于 2021-7-23 15:31:05 | 显示全部楼层
听一听,谢谢楼主分享

8

主题

162

帖子

1578

积分

当红偶像

Rank: 4

积分
1578
发表于 2021-7-24 10:31:16 | 显示全部楼层
感谢楼主的分享

0

主题

6

帖子

92

积分

新人会员,请认真回复,若恶意回复,直接封号

Rank: 1

积分
92
发表于 2021-7-24 22:16:07 | 显示全部楼层
收一个 感谢提供
您需要登录后才可以回帖 登录 | 注册

本版积分规则

快速回复 返回顶部 返回列表