最近看过此主题的会员

查看: 170|回复: 16

[纯音乐] 当代爵士:Archie Shepp & Jason Moran《Let My People Go》2021/24bit 48kHz

[复制链接]

267

主题

985

帖子

5万

积分

天王巨星

Rank: 7Rank: 7Rank: 7

积分
55937

灌水勋章

QQ
发表于 2021-7-22 09:40:14 | 显示全部楼层 |阅读模式

注册会员,获得无损资源下载地址,享受高品质音乐。

您需要 登录 才可以下载或查看,没有帐号?注册

x
folder.jpg


TRACKLIST

1Sometimes I Feel Like a Motherless Child
8:21
2Isfahan
Written-By – Billy Strayhorn, Duke Ellington
6:11
3He Cares
Written-By – Jason Moran
6:42
4Go Down Moses
7:01
5Wise One
Written-By – John Coltrane
13:13
6Lush Life
Written-By – Billy Strayhorn
8:49
7Round Midnight
Written-By – Cootie Williams, Thelonious Monk
8:32
8Ain't Misbehavin' Bonus Track
3:12
9Jitterbug Bonus Track
12:59
10Ujama Bonus Track
9:38
11Slow Drag Bonus Track
6:11
12Sometimes I Feel Like A Motherless Child Edit
3:11

链接: https://pan.baidu.com/s/1Wdx10StopQaguF75zzy3zQ

游客,本帖隐藏的内容需要积分高于 200 才可浏览,您当前积分为 0


Technical

technical.png


DR Value

foobar2000 1.6.6 / Dynamic Range Meter 1.1.1
log date: 2021-07-22 09:20:40

--------------------------------------------------------------------------------
Analyzed: Archie Shepp / Let My People Go
--------------------------------------------------------------------------------

DR         Peak         RMS     Duration Track
--------------------------------------------------------------------------------
DR14      -0.01 dB   -18.08 dB      8:21 01-Sometimes I Feel Like a Motherless Child
DR13      -0.02 dB   -17.34 dB      6:11 02-Isfahan
DR12      -0.01 dB   -16.26 dB      6:41 03-He Cares
DR14      -0.03 dB   -20.14 dB      7:01 04-Go Down Moses
DR9       -0.02 dB   -13.59 dB     13:13 05-Wise One
DR12      -0.02 dB   -16.17 dB      8:49 06-Lush Life
DR13      -0.02 dB   -16.67 dB      8:32 07-Round Midnight
DR12      -0.02 dB   -16.25 dB      3:13 08-Ain't Misbehavin' (Bonus Track)
DR12      -0.02 dB   -14.84 dB     13:00 09-Jitterbug Waltz (Bonus Track)
DR10      -0.01 dB   -12.37 dB      9:38 10-Ujama (Bonus Track)
DR12      -0.02 dB   -16.39 dB      6:12 11-Slow Drag (Bonus Track)
DR15      -0.02 dB   -22.19 dB      3:52 12-Sometimes I Feel Like a Motherless Child (Edit)
--------------------------------------------------------------------------------

Number of tracks:  12
Official DR value: DR12

Samplerate:        48000 Hz
Channels:          2
Bits per sample:   24
Bitrate:           1365 kbps
Codec:             FLAC
================================================================================





评分

参与人数 1CD +160 收起 理由
最终之战 + 160

查看全部评分





原声:Loki: Vol. 1 (Episodes 1-3) (by Natalie Holt) 2021/FLAC/BD
爵士吉他怪才:Grant Green《Green Street》1961/2014/24bit 192kHz

Click the icon and register for free

0

主题

1642

帖子

504

积分

职业歌手

Rank: 3Rank: 3

积分
504
发表于 2021-7-22 09:50:58 | 显示全部楼层
经典音乐

0

主题

1593

帖子

1026

积分

职业歌手

Rank: 3Rank: 3

积分
1026
发表于 2021-7-22 10:28:53 | 显示全部楼层
感谢楼主分享好音乐,支持

0

主题

913

帖子

1878

积分

当红偶像

Rank: 4

积分
1878

社区QQ达人

发表于 2021-7-22 10:39:11 | 显示全部楼层
感谢分享,经典音乐推荐必听。
integral

3

主题

2548

帖子

1639

积分

当红偶像

Rank: 4

积分
1639
发表于 2021-7-22 11:08:44 | 显示全部楼层
謝謝樓主的音樂
integral

0

主题

2227

帖子

1309

积分

当红偶像

Rank: 4

积分
1309

社区QQ达人

发表于 2021-7-22 11:38:34 | 显示全部楼层
很喜欢的设计,听听看。感谢楼主分享!!

1

主题

314

帖子

1534

积分

当红偶像

Rank: 4

积分
1534
发表于 2021-7-22 12:34:58 | 显示全部楼层
不晓得具体是那种爵士,看封面很可爱啊

16

主题

1170

帖子

2833

积分

当红偶像

Rank: 4

积分
2833
发表于 2021-7-22 14:27:59 | 显示全部楼层
试听了,可以收了

1

主题

388

帖子

1529

积分

当红偶像

Rank: 4

积分
1529
发表于 2021-7-22 14:40:57 | 显示全部楼层
还说什么呢,收了感谢!
integral

1

主题

2532

帖子

1793

积分

当红偶像

Rank: 4

积分
1793

社区QQ达人

发表于 2021-7-22 15:19:10 | 显示全部楼层
给力,非常感谢!!!

1

主题

4570

帖子

6854

积分

人气天王

Rank: 5Rank: 5

积分
6854
发表于 2021-7-22 15:28:59 | 显示全部楼层
是当代的哇,要了

0

主题

2177

帖子

1433

积分

当红偶像

Rank: 4

积分
1433
发表于 2021-7-22 21:15:55 | 显示全部楼层
谢谢楼主分享爵士乐.......

0

主题

225

帖子

502

积分

职业歌手

Rank: 3Rank: 3

积分
502
发表于 2021-7-22 22:38:17 | 显示全部楼层
感谢感谢,这个现场还是很不错的

0

主题

1897

帖子

654

积分

职业歌手

Rank: 3Rank: 3

积分
654
发表于 2021-7-23 15:30:29 | 显示全部楼层
听一听,谢谢楼主分享

评分

参与人数 1CD -400 收起 理由
最终之战 -400 禁止多贴连续回复同一或类似内容。.

查看全部评分

0

主题

246

帖子

2874

积分

当红偶像

Rank: 4

积分
2874
发表于 2021-7-23 22:47:25 | 显示全部楼层
thank you for sharing great jazz
您需要登录后才可以回帖 登录 | 注册

本版积分规则

快速回复 返回顶部 返回列表