最近看过此主题的会员

查看: 1012|回复: 27

[HR] TVアニメ「進撃の巨人」 The Final Season OST 2021/24bit 96kHz/BD

[复制链接]

275

主题

1007

帖子

5万

积分

天王巨星

Rank: 7Rank: 7Rank: 7

积分
59132

灌水勋章

QQ
发表于 2021-7-6 09:14:43 | 显示全部楼层 |阅读模式

注册会员,获得无损资源下载地址,享受高品质音乐。

您需要 登录 才可以下载或查看,没有帐号?注册

x
本帖最后由 WoW汪 于 2021-7-6 09:22 编辑
cover.jpg

Attack On Titan The Final Season Original Soundtrack
TVアニメ「進撃の巨人」 The Final Season オリジナルサウンドトラック
TV Anime "Shingeki no Kyojin" The Final Season Original Soundtrack



TRACKLIST
01        Ashes on The Fire        4:34
02        The Other Side of the Sea        4:57
03        Splinter Wolf        5:21
04        Nightmare        3:41
05        Guilty Hero        4:22
06        The Successor        4:09
07        Memory Lane        3:03
08        Liberio at Night        2:56
09        Liberio Festival        3:03
10        True History        5:20
11        The Warriors        4:06
12        The Fall of Marley        3:18
13        Zeek's Plan        3:47
14        Nowhere to go        3:05
15        Atonement        3:18
16        Cold Light        3:34
17        The Reason        3:26
18        Friendships        3:44
19        Memory Lane Vln ver.        3:03
20        Liberio at Night Pf&Vln ver.        2:57
21        AOTF-s1        7:57
22        AOTF-s2        3:33
23        AOTF-s3        3:42

Disc length 90:56


游客,本帖隐藏的内容需要积分高于 200 才可浏览,您当前积分为 0

Technical

technical.png


DR Value

foobar2000 1.6.6 / Dynamic Range Meter 1.1.1
log date: 2021-07-06 08:56:22

--------------------------------------------------------------------------------
Analyzed: Hiroyuki Sawano / Attack on Titan Final Season Original Soundtrack (1-3)
          Kohta Yamamoto / Attack on Titan Final Season Original Soundtrack (4-23)
--------------------------------------------------------------------------------

DR         Peak         RMS     Duration Track
--------------------------------------------------------------------------------
DR6       -0.32 dB    -8.34 dB      7:57 21-AOTF-s1
DR7       -0.32 dB    -8.62 dB      3:33 22-AOTF-s2
DR13      -0.32 dB   -18.03 dB      3:42 23-AOTF-s3
DR6       -0.32 dB    -9.41 dB      4:35 01-Ashes on The Fire
DR6       -0.32 dB    -8.95 dB      4:57 02-The Other Side of the Sea
DR6       -0.32 dB    -7.77 dB      5:22 03-Splinter Wolf
DR7       -0.32 dB   -11.11 dB      3:42 04-Nightmare
DR8       -0.32 dB   -12.47 dB      4:23 05-Guilty Hero
DR6       -0.32 dB   -10.74 dB      4:09 06-The Successor
DR8       -0.32 dB   -11.73 dB      3:03 07-Memory Lane
DR10      -0.32 dB   -12.96 dB      2:56 08-Liberio at Night
DR7       -0.32 dB    -8.91 dB      3:04 09-Liberio Festival
DR7       -0.32 dB   -10.45 dB      5:21 10-True History
DR6       -0.32 dB    -9.16 dB      4:06 11-The Warriors
DR6       -0.32 dB    -9.19 dB      3:19 12-The Fall of Marley
DR8       -0.32 dB   -10.65 dB      3:47 13-Zeek's Plan
DR10      -0.32 dB   -13.71 dB      3:06 14-Nowhere to go
DR9       -0.32 dB   -12.18 dB      3:19 15-Atonement
DR10      -0.32 dB   -12.07 dB      3:35 16-Cold Light
DR14      -0.32 dB   -18.70 dB      3:27 17-The Reason
DR8       -0.32 dB   -13.02 dB      3:44 18-Friendships
DR9       -0.32 dB   -12.23 dB      3:03 19-Memory Lane (Vln ver.)
DR11      -0.33 dB   -15.45 dB      2:58 20-Liberio at Night (Pf&Vln ver.)
--------------------------------------------------------------------------------

Number of tracks:  23
Official DR value: DR8

Samplerate:        96000 Hz
Channels:          2
Bits per sample:   24
Bitrate:           2526 kbps
Codec:             FLAC
================================================================================

评分

参与人数 1CD +160 收起 理由
最终之战 + 160

查看全部评分





[mora] 劇場版「BanG Dream! Episode of Roselia」Theme Songs Collection 24_96
1stアルバム『11という名の永遠の素数』(通常盤)2021/FLAC_24_96

Click the icon and register for free
integral

1

主题

742

帖子

4207

积分

人气天王

Rank: 5Rank: 5

积分
4207

社区QQ达人

发表于 2021-7-6 10:39:42 | 显示全部楼层
不错的动画原声!

点评

进击的巨人YYDS!!!  详情 回复 发表于 2021-9-8 10:39

0

主题

258

帖子

654

积分

职业歌手

Rank: 3Rank: 3

积分
654
发表于 2021-7-6 11:05:13 | 显示全部楼层
感谢分享动画原声!

2

主题

3437

帖子

1033

积分

职业歌手

Rank: 3Rank: 3

积分
1033

社区QQ达人

发表于 2021-7-6 11:37:34 | 显示全部楼层
进击的巨人第二弹!!

6

主题

255

帖子

2073

积分

当红偶像

Rank: 4

积分
2073
发表于 2021-7-6 18:29:40 | 显示全部楼层
献出心脏!感谢分享!

1

主题

3256

帖子

4955

积分

人气天王

Rank: 5Rank: 5

积分
4955
发表于 2021-7-6 21:46:11 | 显示全部楼层
好东西,感谢楼主分享

10

主题

811

帖子

798

积分

职业歌手

Rank: 3Rank: 3

积分
798
发表于 2021-7-6 23:56:20 | 显示全部楼层
感谢楼主的分享!收下了!

0

主题

1117

帖子

372

积分

乐坛新星

Rank: 2

积分
372
发表于 2021-7-7 09:30:24 | 显示全部楼层
进击配乐不错,支持一下,感谢分享1`

0

主题

273

帖子

1647

积分

当红偶像

Rank: 4

积分
1647
发表于 2021-7-7 16:04:31 | 显示全部楼层
感谢楼主分享!

8

主题

162

帖子

1582

积分

当红偶像

Rank: 4

积分
1582
发表于 2021-7-14 06:45:22 | 显示全部楼层
感谢楼主的分享

3

主题

1540

帖子

1574

积分

当红偶像

Rank: 4

积分
1574

社区QQ达人

发表于 2021-7-14 07:08:43 | 显示全部楼层
感谢分享,爱了爱了!等待S4part.2!

0

主题

828

帖子

1524

积分

当红偶像

Rank: 4

积分
1524

社区QQ达人

发表于 2021-7-14 08:04:41 | 显示全部楼层
非常感谢楼主分享!
 成长值: 250

0

主题

29

帖子

1531

积分

VIP1

Rank: 4

积分
1531
发表于 2021-7-14 13:30:50 | 显示全部楼层
献上心脏吧,感谢楼主分享巨人音乐!找好久了

1

主题

83

帖子

780

积分

职业歌手

Rank: 3Rank: 3

积分
780

社区QQ达人

发表于 2021-7-19 23:52:31 | 显示全部楼层
感谢楼主分享!

3

主题

24

帖子

331

积分

乐坛新星

Rank: 2

积分
331
发表于 2021-7-24 20:16:15 | 显示全部楼层
感谢楼主分享66666666666
您需要登录后才可以回帖 登录 | 注册

本版积分规则

快速回复 返回顶部 返回列表